Quick Browse
Movies
TV shows
Music
Games
Applications
Anime
Other
Facebook
Advertising

Friends
Torrent Download
Movie4u
1337x.to
Torrent Downloads




Verified torrent Contraband 2012 REPACK CAM XViD AC3-26K


    Seeders : 0      Leechers : 0
Hash :88E2AF204C6A8488FA02DCBADCBFB729373FA55F
Added :1 Year+ by memory100Verified torrent uploader in Movies
Size :1.38 GB
Stream :WATCH ONLINE @ Movie4u


Contraband 2012 REPACK CAM XViD AC3-26K
Free and Fast Download with Usenet 300GB+ free







Trackers List

Tracker NameLast CheckStatusSeedersLeechers




Torrent File Content (7 files)


Contraband 2012 REPACK CAM XViD AC3-26K
     Contraband 2012 REPACK CAM XViD AC3-26K.avi -
1.32 GB

     Contraband 2012 REPACK CAM XViD AC3-26K.nfo -
3.46 KB

     HDSceneRG.txt -
115 bytes

     Torrent downloaded from Demonoid.me.txt -
46 bytes

     att-networks.com.txt -
39 bytes

     sample.avi -
62.5 MB

     sceneunderground.org.txt -
77 bytes



Description



http://img205.imageshack.us/img205/4893/contraaaaaa.jpg

[code]
Contraband 2012 REPACK CAM XViD AC3-26K

Imdb:
http://www.imdb.com/title/tt1524137/

Plot:
To protect his brother-in-law from a drug lord, a former smuggler heads to Panama to score millions of dollars in counterfeit bills.

Sources:
RUSSIAN VIDEO
THNXS M8 FOR AUDIO..

Notes:
REPACK FIXED OOS PARTS IN THE MOVIE WERE AROUND 3-6 PARTS...THIS LAST ENCODE I WILL DO OF THIS MOVIE :p UNTIL THE NEW SOURCE SO SIMPLE.. TAKE OR LEAVE IT...
=) ENJOY.

Greetz:
Xtreme Encode|FYA|ILLUMANTI|CM8|RX|VISION|HDSCENE|NIGHTMAREZ|xTriLL|DTRG|CRYS|REMIXHD|BIDA|RX|REFILL|INSPiRAL|SIC
To all the people who have helped me :P you know who you are

Anything to offer email us @: [email protected]

Video
ID : 0
Format : MPEG-4 Visual
Format profile : Advanced [email protected]
Format settings, BVOP : 2
Format settings, QPel : No
Format settings, GMC : No warppoints
Format settings, Matrix : Default (H.263)
Muxing mode : Packed bitstream
Codec ID : XVID
Codec ID/Hint : XviD
Duration : 1h 43mn
Bit rate : 1 590 Kbps
Width : 720 pixels
Height : 304 pixels
Display aspect ratio : 2.35:1
Frame rate : 25.000 fps
Color space : YUV
Chroma subsampling : 4:2:0
Bit depth : 8 bits
Scan type : Progressive
Compression mode : Lossy
Bits/(Pixel*Frame) : 0.291
Stream size : 1.15 GiB (87%)
Writing library : XviD 64

Audio
ID : 1
Format : AC-3
Format/Info : Audio Coding 3
Mode extension : CM (complete main)
Codec ID : 2000
Duration : 1h 43mn
Bit rate mode : Constant
Bit rate : 224 Kbps
Channel(s) : 2 channels
Channel positions : Front: L R
Sampling rate : 44.1 KHz
Bit depth : 16 bits
Compression mode : Lossy
Stream size : 166 MiB (12%)
Alignment : Split accross interleaves
Interleave, duration : 9361 ms (234.03 video frames)
[/code]
Screens:
http://img534.imageshack.us/img534/2272/vlcsnap2012011615h51m29.png

http://img20.imageshack.us/img20/1268/vlcsnap2012011615h51m35.png

http://img440.imageshack.us/img440/6492/vlcsnap2012011615h51m55.png

http://img51.imageshack.us/img51/2609/vlcsnap2012011615h52m00.png

http://img14.imageshack.us/img14/2716/vlcsnap2012011615h52m03.png

http://img828.imageshack.us/img828/6141/vlcsnap2012011615h52m15.png



http://img851.imageshack.us/img851/5503/26ks.jpg

Thank you smallz for banner!

Related torrents

Torrent NameAddedSizeSeedLeechHealth
Verified torrent
1 Year+ - in Movies1.98 GB11
1 Year+ - in Movies2.59 GB05
Verified torrent
1 Year+ - in Movies2.59 GB00
Verified torrent
1 Year+ - in Movies1.22 GB10
Verified torrent
1 Year+ - in Movies1.44 GB10

Comments (0 Comments)




Please login or create a FREE account to post comments

Latest Searches

| repack 3ds | uncensored mp3 | f x butterfly | Adobe Photoshop Lightroom CC 6 7 Multilingual Mac OS X | Guns N Roses Destruction FLAC | Eye in the Sky 2016 720p BluRay AC3 PapaFatHead | Father Brown Stories | September techno | the show boy | at the CASINO |