Quick Browse
Movies
TV shows
Music
Games
Applications
Anime
Other
Facebook
Advertising

Friends
Torrent Download
Movie4u
1337x.to
Torrent Downloads




Verified torrent Contraband 2012 TS Xvid AC3-26K


    Seeders : 0      Leechers : 0
Hash :E7ACC48159A08B12DEB1014077D9BD5344DD9B6F
Added :1 Year+ by memory100Verified torrent uploader in Movies
Size :1.2 GB
Stream :WATCH ONLINE @ Movie4u


Contraband 2012 TS Xvid AC3-26K
Free and Fast Download with Usenet 300GB+ free







Trackers List

Tracker NameLast CheckStatusSeedersLeechers




Torrent File Content (7 files)


Contraband 2012 TS Xvid AC3-26K
     Contraband 2012 TS Xvid AC3-26K.avi -
1.19 GB

     Contraband 2012 TS Xvid AC3-26K.nfo -
3.3 KB

     HDSceneRG.txt -
115 bytes

     Torrent downloaded from Demonoid.me.txt -
46 bytes

     att-networks.com.txt -
39 bytes

     sample.avi -
10.81 MB

     sceneunderground.org.txt -
77 bytes



Description



http://img11.imageshack.us/img11/719/contrab.jpg

[code]
Contraband 2012 TS Xvid AC3-26K

Imdb:
http://www.imdb.com/title/tt1524137/

Plot:
To protect his brother-in-law from a drug lord, a former smuggler heads to Panama to score millions of

dollars in counterfeit bills.

Sources:
VIDEO RUSSIAN- THNXS!!
Audio-Unknown...

Notes:
VERY GOOD LINE FROM UNKNOWN...THNXS...the russian vidoe as usaul is very dark!!.. so here is my attempt

added few filters to the video to make it look nice...
@ unknown sharing is caring bruv...i share the sources for cams i get why dont you?...

Greetz:
Xtreme

Encode|FYA|ILLUMANTI|CM8|RX|VISION|HDSCENE|NIGHTMAREZ|xTriLL|DTRG|CRYS|REMIXHD|BIDA|RX|REFILL|INSPiRAL|S

IC
To all the people who have helped me :P you know who you are

Anything to offer email us @: [email protected]

Video
ID : 0
Format : MPEG-4 Visual
Format profile : Advanced [email protected]
Format settings, BVOP : 2
Format settings, QPel : No
Format settings, GMC : No warppoints
Format settings, Matrix : Default (H.263)
Codec ID : XVID
Codec ID/Hint : XviD
Duration : 1h 42mn
Bit rate : 1 500 Kbps
Width : 680 pixels
Height : 292 pixels
Display aspect ratio : 2.35:1
Frame rate : 25.000 fps
Color space : YUV
Chroma subsampling : 4:2:0
Bit depth : 8 bits
Scan type : Progressive
Compression mode : Lossy
Bits/(Pixel*Frame) : 0.302
Stream size : 1.07 GiB (90%)
Writing library : XviD 63

Audio
ID : 1
Format : AC-3
Format/Info : Audio Coding 3
Mode extension : CM (complete main)
Codec ID : 2000
Duration : 1h 41mn
Bit rate mode : Constant
Bit rate : 160 Kbps
Channel(s) : 2 channels
Channel positions : Front: L R
Sampling rate : 48.0 KHz
Bit depth : 16 bits
Compression mode : Lossy
Stream size : 117 MiB (10%)
Alignment : Aligned on interleaves
Interleave, duration : 32 ms (0.80 video frame)

[/code]

Screens:
http://img267.imageshack.us/img267/6547/vlcsnap2012012312h13m25.png

http://img96.imageshack.us/img96/4786/vlcsnap2012012312h13m29.png

http://img692.imageshack.us/img692/413/vlcsnap2012012312h13m48.png

http://img803.imageshack.us/img803/1259/vlcsnap2012012312h14m09.png

http://img37.imageshack.us/img37/3461/vlcsnap2012012312h14m16.png


http://img851.imageshack.us/img851/5503/26ks.jpg

Thank you smallz for banner!

Related torrents

Torrent NameAddedSizeSeedLeechHealth
Verified torrent
1 Year+ - in Movies1.77 GB13
7 months ago - in Movies1.08 GB00
1 Year+ - in Movies1.34 GB23
1 Year+ - in Movies1.26 GB03
1 Year+ - in Movies1.26 GB159

Comments (0 Comments)




Please login or create a FREE account to post comments

Latest Searches

| battle heavy metal | Lincoln 2012 hevc | Tell Me I m Pretty Cage the Elephant flac | LA CANZONE DEL MARE | iie39 | Suicide Squad Extended 2016 H264 Italian English Ac3 5 1 iCV MIRCrew | Riding Girl 2016 | I love you a thousand ways | the d o c and dre | The Big Bang Theory S10E10 HDTV x264 LOL |