Quick Browse
Movies
TV shows
Music
Games
Applications
Anime
Other
Facebook
Advertising

Friends
Torrent Download
Movie4u
1337x.to
Torrent Downloads




Verified torrent Coriolanus 2011 R5 CAM AUDIO XViD-26K


    Seeders : 1      Leechers : 0
Hash :C30909AB57DF3D871A52B8EFC14DD5188690C9F6
Added :1 Year+ by memory100Verified torrent uploader in Movies
Size :1.62 GB
Stream :WATCH ONLINE @ Movie4u


Coriolanus 2011 R5 CAM AUDIO XViD-26K
Free and Fast Download with Usenet 300GB+ free







Trackers List

Tracker NameLast CheckStatusSeedersLeechers




Torrent File Content (3 files)


Coriolanus 2011 R5 CAM AUDIO XViD-26K
     Coriolanus 2011 R5 CAM AUDIO XViD-26K.avi -
1.6 GB

     Coriolanus 2011 R5 CAM AUDIO XViD-26K.nfo -
3.37 KB

     sample.avi -
27.37 MB



Description



http://img4.imageshack.us/img4/8184/corij.jpg

[code]
Coriolanus 2011 R5 CAM AUDIO XViD-26K

Imdb:
http://www.imdb.com/title/tt1372686/

Plot:
A banished hero of Rome allies with a sworn enemy to take his revenge on the city.

Sources:
DVD9 -Russian --Thanks
Audio-INSPiRAL--Thanks

Notes:
ENCODED OF THE VOB FILES :) THEN MUXED THE CAM AUDIO ON TOT HE ENCODE!!!
THNXS TO INPIRAL FOR THE AUDIO :)

Greetz:
Xtreme

Encode|FYA|ILLUMANTI|CM8|RX|VISION|HDSCENE|NIGHTMAREZ|xTriLL|DTRG|CRYS|REMIXHD|BIDA|RX|REFILL|INSPiRAL

|SIC|ZOMBIESZ|HOPE|Anonymous|GooN
To all the people who have helped me :P you know who you are

Anything to offer email us @: [email protected]

Video
ID : 0
Format : MPEG-4 Visual
Format profile : Advanced [email protected]
Format settings, BVOP : 2
Format settings, QPel : No
Format settings, GMC : No warppoints
Format settings, Matrix : Default (H.263)
Codec ID : XVID
Codec ID/Hint : XviD
Duration : 1h 58mn
Bit rate : 1 700 Kbps
Width : 720 pixels
Height : 304 pixels
Display aspect ratio : 2.35:1
Frame rate : 25.000 fps
Color space : YUV
Chroma subsampling : 4:2:0
Bit depth : 8 bits
Scan type : Progressive
Compression mode : Lossy
Bits/(Pixel*Frame) : 0.311
Stream size : 1.40 GiB (88%)
Writing library : XviD 64

Audio
ID : 1
Format : AC-3
Format/Info : Audio Coding 3
Mode extension : CM (complete main)
Codec ID : 2000
Duration : 1h 58mn
Source duration : 1h 58mn
Bit rate mode : Constant
Bit rate : 224 Kbps
Channel(s) : 2 channels
Channel positions : Front: L R
Sampling rate : 44.1 KHz
Bit depth : 16 bits
Compression mode : Lossy
Stream size : 189 MiB (12%)
Alignment : Aligned on interleaves
Interleave, duration : 35 ms (0.87 video frame)

[/code]
Screens:
http://i.imgur.com/p1hYx.png

http://i.imgur.com/L0ahh.png

http://img201.imageshack.us/img201/5939/vlcsnap2012022600h36m47.png

http://img11.imageshack.us/img11/7092/vlcsnap2012022600h36m50.png

http://img694.imageshack.us/img694/2959/vlcsnap2012022600h36m54.png

http://img341.imageshack.us/img341/3632/vlcsnap2012022600h36m57.png

http://img443.imageshack.us/img443/1907/vlcsnap2012022600h37m04.png


Alternative screens:
http://dippic.com/8rfdyry4dptc
http://www.hotimg.com/image/hZ5suDV
http://imgdepot.org/show/20120226/2/577632_vlcsnap_2012_02_26_00h36m44s10.png
http://www.imageporter.com/c3bpg2v884qp/vlcsnap-2012-02-26-00h36m50s73.png

http://img851.imageshack.us/img851/5503/26ks.jpg

Thank you smallz for banner!

Related torrents

Torrent NameAddedSizeSeedLeechHealth
1 Year+ - in Movies1.1 GB433
1 Year+ - in Movies1.1 GB2690
1 Year+ - in Movies1.39 GB01
1 Year+ - in Movies1.37 GB00
1 Year+ - in Movies1.39 GB00

Comments (0 Comments)




Please login or create a FREE account to post comments

Latest Searches

| mass feat b o s s | Design of Analog Integrated Circuits and Systems | top 1980s songs | the fixtape smoke on this | great the giant | flac Supertramp oan | fuck nephew | wajah tum ho 3 | 2016 top 4 music | Songs Of Yesterday free |