Quick Browse
Movies
TV shows
Music
Games
Applications
Anime
Other
Facebook
Advertising

Friends
Torrent Download
Movie4u
1337x.to
Torrent Downloads




Corsa.A.Witch.Mountain.2009.iTALiAN.DVDRip.XviD-Republic.[ultimafrontiera]


    Seeders : 35      Leechers : 10

Trackers List

Tracker NameLast CheckStatusSeedersLeechers




Torrent File Content (1 file)


     Corsa.A.Witch.Mountain.2009.iTALiAN.DVDRip.XviD-Republic.avi -
699.79 MB



Description



http://img20.imageshack.us/img20/289/racetowitchmountain3965.jpg


Titolo originale: Race to Witch Mountain
Nazione: U.S.A.
Anno: 2009
Genere: Avventura, Thriller
Durata: 98'
Regia: Andy Fickman

Produzione: Walt Disney Pictures, Gunn Films
Distribuzione: Walt Disney Studios Motion Pictures Italia
Data di uscita: 29 Maggio 2009 (cinema)

Cast

Dwayne Johnson, Annasophia Robb, Alexander Ludwig, Carla Gugino, Tom Everett Scott, Ciarán Hinds,
Garry Marshall, Chris Marquette, Kim Richards, Christine Lakin, Meredith Salenger

Trama

La difficile vita di Jack Bruno, un tassista di Las Vegas, viene ulteriormente complicata dall'incontro
con due adolescenti in fuga, Sara e Seth, che un bel giorno saltano improvvisamente dentro al suo taxi.
L'uomo si rende presto conto che i due passeggeri sono dotati di eccezionali poteri paranormali e che
dovrà proteggerli da un'orda di spietati nemici.

Trailer

www.youtube.com/watch?v=0X1eACdRpy0

Dati Tecnici

[code]
General
Complete name : Dvdrip/Corsa.A.Witch.Mountain.2009.iTALiAN.DVDRip.XviD-Republic.avi
Format : AVI
Format/Info : Audio Video Interleave
File size : 700 MiB
Duration : 1h 34mn
Overall bit rate : 1 038 Kbps
Writing application : VirtualDubMod 1.5.10.2 (build 2542/release)
Writing library : VirtualDubMod build 2542/release

Video
ID : 0
Format : MPEG-4 Visual
Format profile : [email protected]
Format settings, BVOP : Yes
Format settings, QPel : No
Format settings, GMC : No warppoints
Format settings, Matrix : Default (H.263)
Codec ID : XVID
Codec ID/Hint : XviD
Duration : 1h 34mn
Bit rate : 644 Kbps
Width : 656 pixels
Height : 272 pixels
Display aspect ratio : 2.412
Frame rate : 25.000 fps
Resolution : 24 bits
Colorimetry : 4:2:0
Scan type : Progressive
Bits/(Pixel*Frame) : 0.144
Stream size : 434 MiB (62%)
Writing library : XviD 1.2.1 (UTC 2008-12-04)

Audio
ID : 1
Format : AC-3
Format/Info : Audio Coding 3
Codec ID : 2000
Duration : 1h 34mn
Bit rate mode : Constant
Bit rate : 384 Kbps
Channel(s) : 6 channels
Channel positions : Front: L C R, Surround: L R, LFE
Sampling rate : 48.0 KHz
Stream size : 259 MiB (37%)
Alignment : Split accross interleaves
Interleave, duration : 40 ms (1.00 video frame)
Interleave, preload duration : 500 ms
[/code]

Related torrents

Torrent NameAddedSizeSeedLeechHealth
1 Year+ - in Movies890.85 MB17
1 Year+ - in Movies695.9 MB00
1 Year+ - in Movies620.95 MB31217
1 Year+ - in Movies693.51 MB00
1 Year+ - in Movies693.51 MB4582

Comments (0 Comments)




Please login or create a FREE account to post comments

Latest Searches

| Lady GagaJoanne | domt | Russian With Big Boobs | Madonna Im crazy | Selena Gomez me me girls | Stress Buster Courtney Taylor Keiran Lee | grimm 2012 s02e010 1080p web dl eng nlsubs b sam tbs | Luxion KeyShot Pro 6 3 | The Family The Real Story of the Bush Dynasty | killing mrs tingle 1999 dvdrip swesub xvid ac3 mr keff |