Quick Browse
TV shows

Latest Articles

Torrent Download
Free Movies
Torrent Downloads

Count of Monte Cristo, The (ENG)(NL SUBS) 2Lions-Team

    Seeders : 6      Leechers : 9

Hash :C54E0CBACF7F12EFB1C7E402BEE845EC7A4C4B17
Added :1 Year+ in Movies
Size :4.21 GB
Stream :Watch Online Full Movie @ Movie4u
Share :

Warning! Do not Download Torrents Without a VPN!
Your IP Address is .   And Location is
Your Internet Provider and Government can track your torrent Activity!  Hide your IP ADDRESS with a VPN!
We Strongly Recommend Using CyberGhost VPN to Anonymize your Torrenting.

Note :

Please Update (Trackers Info) Before Downloading Torrents to See Updated Seeders And Leechers for Batter Download Speed.

Trackers List

Tracker NameLast CheckStatusSeedersLeechers

Torrent File Content (14 files)

Count of Monte Cristo, The (2002) 2Lions-Team
          The_Count_Of_Monte_Cristo_2002_Widescreen_R1-[cdcovers_cc]-front.jpg -
1.39 MB

          The_Count_Of_Monte_Cristo_2002_Custom-[cdcovers_cc]-cd1.jpg -
109.2 KB

    INFO 2Lions-Team
          logo 2Lions.jpg -
314.99 KB

          Count of Monte Cristo, The (2002) 2Lions-Team.txt -
3.51 KB

          Torrents aan geboden door _2lions.ons-forum.nl.txt -
478 bytes

    The Count Of Monte Cristo
          VTS_01_1.VOB -
1024 MB

          VTS_01_2.VOB -
1024 MB

          VTS_01_3.VOB -
1024 MB

          VTS_01_4.VOB -
1024 MB

          VTS_01_5.VOB -
217.04 MB

          VTS_01_0.BUP -
76 KB

          VTS_01_0.IFO -
76 KB

          VIDEO_TS.BUP -
6 KB

          VIDEO_TS.IFO -
6 KB


Count of Monte Cristo, The (2002)        


Verenigd Koninkrijk / Verenigde Staten / Ierland
Avontuur / Actie
131 minuten

geregisseerd door Kevin Reynolds
met James Caviezel, Guy Pearce en Richard Harris

De schipper Edmond Dantes wordt onterecht veroordeeld van verraad na een brief aangenomen te hebben van de verbannen Napoleon. Zijn 'beste vriend' Fernand is verantwoordelijk voor het feit dat hij opgepakt wordt, aangezien hij uit is op de verloofde van Edmond. Dantes komt vast te zitten op het Chateau d'If, waar hij wraak zweert op de personen die verantwoordelijk zijn voor zijn arrestatie.


'The Count of Monte Cristo' is a remake of the Alexander Dumas tale by the same name. Dantes, a sailor who is falsely accused of treason by his best friend Fernand, who wants Dantes' girlfriend Mercedes for himself. Dantes is imprisoned on the island prison of Chateau d'If for 13 years, where he plots revenge against those who betrayed him. With the help of another prisoner, he escapes the island and proceeds to transform himself into the wealthy Count of Monte Cristo as part of his plan to exact revenge.





Menu: Nee.
Audio: Engels 5.1DD.
Subs: NL instelbaar.
Bestand: VTS.
Categorie : Beeld
Formaat : DVD5
Bron : Retail
Ondertitels : Nederlands (instelbaar)

[code]Format : MPEG-PS
File size : 1 024 MiB
Duration : 29mn 57s
Overall bit rate : 4 780 Kbps

ID : 224 (0xE0)
Format : MPEG Video
Format version : Version 2
Format profile : [email protected]
Format settings, Matrix : Default
Duration : 29mn 57s
Bit rate mode : Variable
Bit rate : 4 206 Kbps
Nominal bit rate : 7 000 Kbps
Width : 720 pixels
Height : 576 pixels
Display aspect ratio : 16/9
Frame rate : 25.000 fps
Standard : PAL
Colorimetry : 4:2:0
Scan type : Interlaced
Scan order : Top Field First
Bits/(Pixel*Frame) : 0.406
Stream size : 901 MiB (88%)

ID : 128 (0x80)
Format : AC-3
Format/Info : Audio Coding 3
Duration : 29mn 56s
Bit rate mode : Constant
Bit rate : 384 Kbps
Channel(s) : 6 channels
Channel positions : Front: L C R, Surround: L R, LFE
Sampling rate : 48.0 KHz
Stream size : 82.3 MiB (8%)

ID : 38 (0x26)
Format : RLE
Format/Info : Run-length encoding

Format : DVD-Video [/code]

Genre : Actie

Weblink : http://www.moviemeter.nl/film/886
Weblink : http://www.imdb.com/title/tt0245844


Brought to you by
2Lions Team

meer zien??
Kom dan eens kijken op ons forum




DON T HIT AND RUN Niet gelijk afhaken als de film binnen is blijf seeden.
Don`t quit after you finished the download, but keep seeding.

Related torrents

Torrent NameAddedSizeSeedLeechHealth
1 Year+ - in Movies7.95 GB00
1 Year+ - in Movies3.08 GB213
1 Year+ - in Movies4.33 GB843
1 Year+ - in Movies6.29 GB00
4 months ago - in Anime.19.61 GB1312

Note :

Feel free to post any comments about this torrent, including links to Subtitle, samples, screenshots, or any other relevant information. Please Dont Download anything from Comments, And Dont Post Links to Streaming Sites like Fmovies, Xmovies8, 123Movies, GoMovies, CMovieshd, Solarmovie, Watchfree, Putlockers, GoStream, m4ufree etc.

Comments (0 Comments)

Please login or create a FREE account to post comments

Latest Searches

| differe | Jgirl x170 UNCENSORED | Legal Anna fisting | America 2018 | Jayy I D K | Grateful Dead the best | 1080p negotiator | 09 11 2013 | in hi | kerala mms |