Quick Browse
Movies
TV shows
Music
Games
Applications
Anime
Other
Facebook
Advertising

Friends
Torrent Download
Movie4u
1337x.to
Torrent Downloads




Count of Monte Cristo, The (ENG)(NL SUBS) 2Lions-Team


    Seeders : 6      Leechers : 9
Hash :C54E0CBACF7F12EFB1C7E402BEE845EC7A4C4B17
Added :1 Year+ in Movies
Size :4.21 GB
Stream :WATCH ONLINE @ Movie4u


Count of Monte Cristo, The (ENG)(NL SUBS) 2Lions-Team
Free and Fast Download with Usenet 300GB+ free







Trackers List

Tracker NameLast CheckStatusSeedersLeechers




Torrent File Content (14 files)


Count of Monte Cristo, The (2002) 2Lions-Team
    Cover
          The_Count_Of_Monte_Cristo_2002_Widescreen_R1-[cdcovers_cc]-front.jpg -
1.39 MB

          The_Count_Of_Monte_Cristo_2002_Custom-[cdcovers_cc]-cd1.jpg -
109.2 KB

    INFO 2Lions-Team
          logo 2Lions.jpg -
314.99 KB

          Count of Monte Cristo, The (2002) 2Lions-Team.txt -
3.51 KB

          Torrents aan geboden door _2lions.ons-forum.nl.txt -
478 bytes

    The Count Of Monte Cristo
          VTS_01_1.VOB -
1024 MB

          VTS_01_2.VOB -
1024 MB

          VTS_01_3.VOB -
1024 MB

          VTS_01_4.VOB -
1024 MB

          VTS_01_5.VOB -
217.04 MB

          VTS_01_0.BUP -
76 KB

          VTS_01_0.IFO -
76 KB

          VIDEO_TS.BUP -
6 KB

          VIDEO_TS.IFO -
6 KB



Description



Count of Monte Cristo, The (2002)        

http://img509.imageshack.us/img509/9365/graaf2lions3d.jpg


Verenigd Koninkrijk / Verenigde Staten / Ierland
Avontuur / Actie
131 minuten

geregisseerd door Kevin Reynolds
met James Caviezel, Guy Pearce en Richard Harris

De schipper Edmond Dantes wordt onterecht veroordeeld van verraad na een brief aangenomen te hebben van de verbannen Napoleon. Zijn 'beste vriend' Fernand is verantwoordelijk voor het feit dat hij opgepakt wordt, aangezien hij uit is op de verloofde van Edmond. Dantes komt vast te zitten op het Chateau d'If, waar hij wraak zweert op de personen die verantwoordelijk zijn voor zijn arrestatie.


English

'The Count of Monte Cristo' is a remake of the Alexander Dumas tale by the same name. Dantes, a sailor who is falsely accused of treason by his best friend Fernand, who wants Dantes' girlfriend Mercedes for himself. Dantes is imprisoned on the island prison of Chateau d'If for 13 years, where he plots revenge against those who betrayed him. With the help of another prisoner, he escapes the island and proceeds to transform himself into the wealthy Count of Monte Cristo as part of his plan to exact revenge.

http://img687.imageshack.us/img687/8945/graag1.jpg


http://img269.imageshack.us/img269/1747/graag2.jpg


http://img188.imageshack.us/img188/3922/graag3.jpg


http://img11.imageshack.us/img11/1077/graag4.jpg




Menu: Nee.
Audio: Engels 5.1DD.
Subs: NL instelbaar.
Cover:
Bestand: VTS.
Spotinformatie
Categorie : Beeld
Formaat : DVD5
Bron : Retail
Ondertitels : Nederlands (instelbaar)

[code]Format : MPEG-PS
File size : 1 024 MiB
Duration : 29mn 57s
Overall bit rate : 4 780 Kbps

Video
ID : 224 (0xE0)
Format : MPEG Video
Format version : Version 2
Format profile : [email protected]
Format settings, Matrix : Default
Duration : 29mn 57s
Bit rate mode : Variable
Bit rate : 4 206 Kbps
Nominal bit rate : 7 000 Kbps
Width : 720 pixels
Height : 576 pixels
Display aspect ratio : 16/9
Frame rate : 25.000 fps
Standard : PAL
Colorimetry : 4:2:0
Scan type : Interlaced
Scan order : Top Field First
Bits/(Pixel*Frame) : 0.406
Stream size : 901 MiB (88%)

Audio
ID : 128 (0x80)
Format : AC-3
Format/Info : Audio Coding 3
Duration : 29mn 56s
Bit rate mode : Constant
Bit rate : 384 Kbps
Channel(s) : 6 channels
Channel positions : Front: L C R, Surround: L R, LFE
Sampling rate : 48.0 KHz
Stream size : 82.3 MiB (8%)

Text
ID : 38 (0x26)
Format : RLE
Format/Info : Run-length encoding

Menu
Format : DVD-Video [/code]


Genre : Actie
Avontuur

Weblink : http://www.moviemeter.nl/film/886
Weblink : http://www.imdb.com/title/tt0245844


*****************************************

Brought to you by
2Lions
2Lions Team

meer zien??
Kom dan eens kijken op ons forum

http://www.2lions.ons-forum.nl

http://img35.imageshack.us/img35/7115/2lionsteam.jpg

******************************************

DON T HIT AND RUN Niet gelijk afhaken als de film binnen is blijf seeden.
Don`t quit after you finished the download, but keep seeding.

Related torrents

Torrent NameAddedSizeSeedLeechHealth
1 Year+ - in Movies7.95 GB00
1 Year+ - in Movies3.08 GB213
1 Year+ - in Movies4.33 GB843
1 Year+ - in Movies6.29 GB00
4 months ago - in Movies1.37 GB00

Comments (0 Comments)




Please login or create a FREE account to post comments

Latest Searches

| r dancehall | alaska the last frontier s06e01 | marvel week 12 2016 | Milk and Honey Daisy Lisa | This Has A Double Party | Before After 246 | udemy marketing facebook | ncis new s03e08 | crack euro truck simulator 2 patch 1 3 | fast and furious 5 |