Quick Browse
Movies
TV shows
Music
Games
Applications
Anime
Other
Facebook
Advertising

Friends
Torrent Download
Movie4u
1337x.to
Torrent Downloads




Cowboys And Aliens 2011 TS XViD-UnKnOwN


    Seeders : 0      Leechers : 8
Hash :BD8E8E39E4644A61E67274438F4D2A00C6F00EF0
Added :1 Year+ by jumbotorrentsxVerified torrent uploader in Movies
Size :1.1 GB
Stream :WATCH ONLINE @ Movie4u


Cowboys And Aliens 2011 TS XViD-UnKnOwN
Free and Fast Download with Usenet 300GB+ free







Trackers List

Tracker NameLast CheckStatusSeedersLeechers




Torrent File Content (3 files)


Cowboys And Aliens 2011 TS XViD-UnKnOwN
     Cowboys And Aliens 2011 TS XViD-UnKnOwN.avi -
1.1 GB

     Cowboys And Aliens 2011 TS XViD-UnKnOwN.nfo -
1.12 KB

     Torrent downloaded from Demonoid.me.txt -
46 bytes



Description



http://img854.imageshack.us/img854/4531/coweh.jpg


http://img31.imageshack.us/img31/1904/47215732.png


http://img833.imageshack.us/img833/2645/91943850.png


http://img11.imageshack.us/img11/6281/19450945.png


[code]
Encoded By .......:UnKnOwN
Runtime ..........:1:53
IMDb URL .........:http://www.imdb.com/title/tt0409847/
Language .........:English
File Size ........:1.08gb
Release Date ......... 2011
Source ......... Imagine
File Type ......... Single AVI
PS3 Compatible ....... Go for it
Genre ......... Thriller/Western


Video
ID : 0
Format : MPEG-4 Visual
Format profile : Advanced [email protected]
Format settings, BVOP : Yes
Format settings, QPel : No
Format settings, GMC : No warppoints
Format settings, Matrix : Custom
Codec ID : Xvid
Codec ID/Hint : XviD
Duration : 2h 18mn
Bit rate : 1 224 Kbps
Width : 680pixels
Height : 284 pixels
Display aspect ratio : 2:35
Frame rate : 29.976 fps
Color space : YUV
Chroma subsampling : 4:2:0
Bit depth : 8 bits
Scan type : Progressive
Bits/(Pixel*Frame) : 0.234
Stream size : 892 MiB (86%)
Writing library : XviD 1.2.1 (UTC 2008-12-04)


Audio
ID : 1
Format : MPEG Audio
Format/Info : Version 1
Mode extension : Layer 3
Codec ID : 2000
Duration : 1h 53mn
Bit rate mode : Constant
Bit rate : 128Kbps
Channel(s) : 2 channels
Channel positions : Front: L r
Sampling rate : 44.0 KHz
Bit depth : 16 bits
Stream size : 302 MiB
Alignment : Aligned on interleaves
Interleave, duration : 42 ms (1.00 video frame)
Interleave, preload duration : 512 ms

SYSPNOSIS
A spaceship arrives in Arizona, 1873, to take over the Earth, starting with the Wild West region. A posse of cowboys are all that stand in their way.
RELEASE INFO


Pulled all the green out,adjusted colors look at comparison screens brightened up dark scenes made about 30 cuts for parts.Nothing done to audio just muxed back to our encode complain or enjoy
[/code]

Related torrents

Torrent NameAddedSizeSeedLeechHealth
1 Year+ - in Movies1.1 GB012
1 Year+ - in Movies1.1 GB00
1 Year+ - in Movies1.1 GB145141
3 Comments
1 Good
Verified torrent
1 Year+ - in Movies1.1 GB298199
1 Year+ - in Movies1.1 GB00

Comments (0 Comments)




Please login or create a FREE account to post comments

Latest Searches

| the Veronicaz | Up church | hegre art charlotta the art of touch massage 1080p mp4 ktr june 14 2016 new | julia annblowjob | building unity asset | a school boy | the betting | pink stay | virginia reel | action bronson mr wonderful full album |