Quick Browse
Movies
TV shows
Music
Games
Applications
Anime
Other

Latest Articles

Friends
Torrents.me
Torrent Download
Free Movies
1337x
RARBG
Torrent Downloads

Verified torrent Cradle 2 The Grave [2004] HDTVRip H264 AAC-Rx


    Seeders : 11      Leechers : 3

Hash :67B2295B98B12F0560F330204F99A3D200C10390
Added :1 Year+ by SAHIBGREWVerified torrent uploader in Movies
Size :1.44 GB
Stream :Watch Online Full Movie @ Movie4u
Share :


Cradle 2 The Grave [2004] HDTVRip H264 AAC-Rx
Download Direct And Anonymously







Warning! Do not Download Torrents Without a VPN!
Your IP Address is .   And Location is
Your Internet Provider and Government can track your torrent Activity!  Hide your IP ADDRESS with a VPN!
We Strongly Recommend Using SpyOFF Torrent VPN to Anonymize your Torrenting. It's FREE for 15 Days!

Note :

Please Update (Trackers Info) Before Downloading Torrents to See Updated Seeders And Leechers for Batter Download Speed.

Trackers List

Tracker NameLast CheckStatusSeedersLeechers




Torrent File Content (7 files)


Cradle 2 The Grave 2004 HDTVRip H264 AAC-Rx(Phoenix-RG)
    COVER
          cradle 2 the grave.jpg -
72.95 KB

    SITE , INFO
          INFO.txt -
1.47 KB

          Torrent downloaded from AhaShare.com.txt -
59 bytes

          Torrent downloaded from thepiratebay.org.txt -
48 bytes

          Torrent downloaded from Demonoid.com.txt -
47 bytes

          tracked_by_h33t_com.txt -
23 bytes

     Cradle 2 The Grave 2004 HDTVRip H264 AAC-Rx(Phoenix-RG).mp4 -
1.44 GB



Description



http://i924.photobucket.com/albums/ad85/hdhieu4/Cradle2theGrave.jpg



[center]



PLOT

When his daughter is kidnapped and held in exchange for priceless diamonds,
the leader of a crew of highly skilled urban thieves (DMX) forges an unlikely
alliance with a Taiwanese Intelligence officer (Jet Li) to rescue her.
Their race against the clock to find the precious stones ultimately unravels a
plot to distribute a deadly new weapon of war../...........



info............

Cradle 2 the Grave 2004 HDTVRip H264 AAC-Rx(Phoenix-RG).mp4
Format : MPEG-4
Format profile : Base Media
Codec ID : isom
File size : 1.44 GiB
Duration : 1h 37mn
Overall bit rate : 2 125 Kbps

Video #1
Format : AVC
Format/Info : Advanced Video Codec
Format profile : [email protected]
Format settings, CABAC : Yes
Format settings, ReFrames : 3 frames
Codec ID : avc1
Codec ID/Info : Advanced Video Coding
Duration : 1h 37mn
Bit rate mode : Variable
Bit rate : 1 800 Kbps
Maximum bit rate : 7 273 Kbps
Width : 1 280 pixels
Height : 544 pixels
Display aspect ratio : 2.35
Frame rate mode : Constant
Frame rate : 25.000 fps
Resolution : 24 bits
Colorimetry : 4:2:0
Scan type : Progressive
Bits/(Pixel*Frame) : 0.103
Stream size : 1.22 GiB (85%)
Writing library : x264 core 98 r1649 c54c47d

Audio #2
Format : AAC
Format/Info : Advanced Audio Codec
Format version : Version 4
Format profile : LC
Format settings, SBR : No
Codec ID : 40
Duration : 1h 37mn
Bit rate mode : Variable
Bit rate : 321 Kbps
Maximum bit rate : 388 Kbps
Channel(s) : 6 channels
Channel positions : Front: L C R, Rear: L R, LFE
Sampling rate : 48.0 KHz
Resolution : 16 bits
Stream size : 223 MiB (15%)




http://www.imdb.com/title/tt0306685[center]


http://lookpic.com/d2/i2/1368/ryY9LirW.jpeg

Related torrents

Torrent NameAddedSizeSeedLeechHealth
2 months ago - in Movies1.53 GB00
6 months ago - in Movies1.52 GB23
1 Year+ - in Movies1.02 GB00
1 Year+ - in Movies1.02 GB926
1 Year+ - in Movies1.44 GB00

Note :

Feel free to post any comments about this torrent, including links to Subtitle, samples, screenshots, or any other relevant information. Please Dont Download anything from Comments, And Dont Post Links to Streaming Sites like Fmovies, Xmovies8, 123Movies, GoMovies, CMovieshd, Solarmovie, Watchfree, Putlockers, GoStream, m4ufree etc.

Comments (0 Comments)




Please login or create a FREE account to post comments

Latest Searches

| 1950 usa | game of thrones bdrip multisub | Amateur Sex Groupsex | Diamond Cut DC Live Forensics Audio Laboratory | old mexico movie | call midwife season 2 | kate bridges | David Baldacci Doelwit | DigitalPlayground Blown Away Scene 5 | Diamond Cut DC Live Forensics Audio Laboratory v7 5 By Adrian Dennis |