Quick Browse
Movies
TV shows
Music
Games
Applications
Anime
Other
Facebook
Friends
Torrent Download
Free Movies
1337x.to
Torrent Downloads

Verified torrent Crazy Stupid Love 2011 720p TS XviD - MiSTERE


    Seeders : 1      Leechers : 1
Hash :C9359A43808A8693EB0F9B7951B51A4673009950
Added :1 Year+ by memory100Verified torrent uploader in Movies
Size :2.54 GB
Stream :Watch Full Movies Online @ Movie4u
Share :


Crazy Stupid Love 2011 720p TS XviD - MiSTERE
Anonymous and Direct Download 300GB+ free







Warning! Do not Download Torrents Without a VPN!
Your IP Address is .   And Location is
Your Internet Provider and Government can track your torrent Activity!  Hide your IP ADDRESS with a VPN!
We Strongly Recommend Using SpyOFF Torrent VPN to Anonymize your Torrenting. It's FREE For 15 Days!

Note :

Please Update (Trackers Info) Before Downloading Torrents to See Updated Seeders And Leechers for Batter Download Speed.

Trackers List

Tracker NameLast CheckStatusSeedersLeechers




Torrent File Content (8 files)


Crazy Stupid Love 2011 720p TS XviD - MiSTERE
     Crazy Stupid Love 2011 720p TS XviD - MiSTERE.avi -
2.52 GB

     Crazy Stupid Love 2011 720p TS XviD - MiSTERE.nfo -
2.17 KB

     HDSceneRG.txt -
115 bytes

     Torrent downloaded from Demonoid.me.txt -
46 bytes

     Torrent downloaded from Suprnova.me.txt -
42 bytes

     att-networks.com.txt -
39 bytes

     sample.avi -
19.72 MB

     sceneunderground.org.txt -
77 bytes



Description



http://img163.imageshack.us/img163/9047/ccrazy.jpg

[code]
Crazy Stupid Love 2011 720p TS XviD - MiSTERE

Video: Crazy.Stupid.Love.2011.iTALiAN.READNFO.720p.TELESYNC.x264-TNZ
Audio: iFLIX

Video
ID : 0
Format : MPEG-4 Visual
Format profile : Advanced [email protected]
Format settings, BVOP : 2
Format settings, QPel : No
Format settings, GMC : No warppoints
Format settings, Matrix : Default (H.263)
Muxing mode : Packed bitstream
Codec ID : XVID
Codec ID/Hint : XviD
Duration : 1h 52mn
Bit rate : 3 070 Kbps
Width : 1 280 pixels
Height : 528 pixels
Display aspect ratio : 2.40:1
Frame rate : 25.000 fps
Color space : YUV
Chroma subsampling : 4:2:0
Bit depth : 8 bits
Scan type : Progressive
Compression mode : Lossy
Bits/(Pixel*Frame) : 0.182
Stream size : 2.41 GiB (96%)
Writing library : XviD 64

Audio
ID : 1
Format : MPEG Audio
Format version : Version 1
Format profile : Layer 3
Mode : Joint stereo
Mode extension : MS Stereo
Codec ID : 55
Codec ID/Hint : MP3
Duration : 1h 52mn
Bit rate mode : Constant
Bit rate : 128 Kbps
Channel(s) : 2 channels
Sampling rate : 48.0 KHz
Compression mode : Lossy
Stream size : 103 MiB (4%)
Alignment : Split accross interleaves
Interleave, duration : 40 ms (1.00 video frame)

Encoded video, synced audio
[/code]
Screens:
http://img207.imageshack.us/img207/9238/96370971.png

http://img43.imageshack.us/img43/2764/26415052.png

http://img43.imageshack.us/img43/4720/69359896.png

http://img213.imageshack.us/img213/1650/77902843.png

Related torrents

Torrent NameAddedSizeSeedLeechHealth
Verified torrent
1 Year+ - in Movies1.27 GB126
Verified torrent
1 Year+ - in Movies886.33 MB19339
Verified torrent
1 Year+ - in Movies886.09 MB735
1 Year+ - in Movies1.43 GB00
1 Year+ - in Movies952.99 MB11

Comments (0 Comments)




Please login or create a FREE account to post comments

Latest Searches

| a bundle of trouble an aurora teagarden | Bedroom n | q stencil | a t 2 boot | bumpy knuckles b | simple boy | Im A Toilet In The Office | fantastic bella | deep web evidence | Twistys Haley |