Quick Browse
Movies
TV shows
Music
Games
Applications
Anime
Other
Facebook
Advertising

Friends
Torrent Download
Movie4u
1337x.to
Torrent Downloads




Crossing.Over.2009.iTALiAN.LiMITED.DVDRip.XviD-Republic.[ultimafrontiera]


    Seeders : 83      Leechers : 50

Trackers List

Tracker NameLast CheckStatusSeedersLeechers




Torrent File Content (2 files)


Crossing.Over.2009.iTALiAN.LiMITED.DVDRip.XviD-Republic.avi
     Crossing.Over.2009.iTALiAN.LiMITED.DVDRip.XviD-Republic.CD1.avi -
699.99 MB

     Crossing.Over.2009.iTALiAN.LiMITED.DVDRip.XviD-Republic.CD2.avi -
698.53 MB



Description




http://i35.tinypic.com/23vevc8.jpg


http://i35.tinypic.com/2zhfihj.jpg


http://i36.tinypic.com/2wlzn9f.jpg


Titolo originale: Crossing Over
Nazione: U.S.A.
Anno: 2008
Genere: Drammatico
Regia: Wayne Kramer
Produzione: C.O. Films



http://i34.tinypic.com/301n9ec.jpg


[color=#00FF00]Harrison Ford, Ray Liotta, Sean Penn, Ashley Judd, Cliff Curtis, Alice Eve, Alice Braga, Summer Bishil, Jaysha Patel, Merik Tadros,

Melody Khazae[/color]


http://i33.tinypic.com/2ldeeyr.jpg


[color=orange]Il film si articola sulle storie di diverse persone, tutti immigranti di nazionalità diverse, e sulle loro lotte, i loro sacrifici e

sforzi per ottenere un permesso di soggiorno nella città di Los Angeles, la famosa "carta verde" che permetterebbe loro di legalizzare la loro

posizione e di poter ottenere i diritti che spettano ad ogni cittadino.
[/color]

http://i38.tinypic.com/2ihuvd2.jpg


[color=red] Crossing over fa parte di un filone di pellicole che ha raggiunto la propria notorietà con il film di Inarritu "Babel" (2007). Tali

film hanno delle caratteristiche comuni e ricorrenti che possono essere elencate in breve. Non hanno un protagonista ben definito, ma sono, per così

dire, "corali", ciascun personaggio ha una caratteristica precisa ma non una psicologia profonda. La sceneggiatura di questi lavori è una sorta di

partitura a tema, servono a denunciare un problema o una disfunzionalità nei rapporti umani. Le relazioni tra personaggi sono per molti versi

speculari, tra le vicende dei protagonisti vi sono motivi ricorrenti oppure delle somiglianze. Ultimo motivo tipico di quello che potremmo chiamare

"filone Babel" è la ritrosia da parte del regista e dello sceneggiatore nel fornire una spiegazione o un'interpretazione. Si suppone che sia lo

spettatore al di fuori della sala a dare una propria lettura di quello che ha visto.
Il tema di crossing over è il passaggio da una frontiera ad un'altra, l'immigrazione clandestina e il respingimento alle frontiere, l'accettamento

delle regole del paese ospitante e il rapporto con la cultura d'origine. Molti dei personaggi presentati non a caso ruotano intorno all'ICE (U.S.

Immigration and Customs Enforcement), l'agenzia governativa statunitense per il controllo delle frontiere e dell'immigrazione clandestina, formata

all'indomani dell'undici settembre. I punti di vista sono molteplici: dall'ufficiale dal cuore tenero (Harrison Ford) alla messicana che passa il

confine centinaia di volte, dall'australiana ricattata da un ufficiale senza scrupoli fino all'ebreo che riscopre la sua identità perché ha bisogno di

lavorare. I personaggi si incontrano a due a due, a volte si sfiorano brevemente (eh già... un'altra caratteristica davvero tipica del "genere") senza

toccarsi, e presentano una schematicità dei rapporti davvero elementare. Così l'ufficiale dell'immigrazione corrotto è sposato con l'avvocatessa

paladina dei diritti civili degli immigrati, l'ufficiale dell'Ice con la famiglia in fase di naturalizzazione scopre di avere qualcosa in comune con

un componente di una gang coreana e una ragazza del Bangladesh scopre sulla propria pelle che nel paese della libertà di parola è meglio non dire

certe cose sui jihadisti dell'undici settembre.
Ovviamente in conclusione, in un rapidissimo montaggio, ogni vicenda trova la propria conclusione, di volta in volta drammatica, tragica,

semplicemente triste o colma di speranza. Con qualche aspetto che francamente fa sorridere: è davvero ridicolo, ad esempio, pensare che degli

ufficiali dell'immigrazione facciano dei serissimi controlli incrociati sull'Internet Movie Database... eppure è proprio quello che accade. Il

rapporto dello Stato è peraltro ambivalente: a volte sembra inutilmente crudele, a volte duro ma giusto, a volte pietoso e umano. Del resto, si sa,

sono gli uomini a fare la differenza. Da notare una piccola e inutile citazione da "Blade Runner" con la solita videocamera di sorveglianza dalla

risoluzione - quella sì - fantascientifica... del resto Harrison Ford sembrava stare lì apposta...

La frase: "Che aspetti? Una proposta di matrimonio?".
Mauro Corso

[/color]


http://i34.tinypic.com/1z1495e.jpg


[code]Format : AVI
Format/Info : Audio Video Interleave
File size : 699 MiB
Duration : 52mn 47s
Overall bit rate : 1 850 Kbps
Writing application : VirtualDubMod 1.5.10.2 (build 2540/release)
Writing library : VirtualDubMod build 2540/release

Video
ID : 0
Format : MPEG-4 Visual
Format profile : [email protected]
Format settings, BVOP : Yes
Format settings, QPel : No
Format settings, GMC : No warppoints
Format settings, Matrix : Default (MPEG)
Codec ID : XVID
Codec ID/Hint : XviD
Duration : 52mn 47s
Bit rate : 1 394 Kbps
Width : 672 pixels
Height : 288 pixels
Display aspect ratio : 2.35:1
Frame rate : 25.000 fps
Resolution : 24 bits
Colorimetry : 4:2:0
Scan type : Progressive
Bits/(Pixel*Frame) : 0.288
Stream size : 526 MiB (75%)
Writing library : XviD 1.2.1 (UTC 2008-12-04)

Audio
ID : 1
Format : AC-3
Format/Info : Audio Coding 3
Codec ID : 2000
Duration : 52mn 35s
Bit rate mode : Constant
Bit rate : 448 Kbps
Channel(s) : 6 channels
Channel positions : Front: L C R, Surround: L R, LFE
Sampling rate : 48.0 KHz
Video delay : 16ms
Stream size : 169 MiB (24%)
Alignment : Split accross interleave[/code]


http://i38.tinypic.com/34hbbjr.jpg


http://www.youtube.com/watch?v=VDJZem3mq2M

Related torrents

Torrent NameAddedSizeSeedLeechHealth
1 Year+ - in Movies1.37 GB81437
1 Year+ - in Movies4.37 GB514
1 Year+ - in Movies700 MB583805
1 Year+ - in Movies699.98 MB13
1 Year+ - in Movies699.99 MB1325

Comments (0 Comments)




Please login or create a FREE account to post comments

Latest Searches

| The Terminal 2004 BrRip 480p Dual Audio Hindi English D rk oul | edm and dance | dj city dj s | im just a prisoner | Vikings S04E12 HDTV x264 KILLERS | Veeam Suite 9 5 | girl on t | squad 3d sbs | ea 10g | hd 1080p creampie |