Quick Browse
Movies
TV shows
Music
Games
Applications
Anime
Other
Facebook
Advertising

Friends
Torrent Download
Movie4u
1337x.to
Torrent Downloads




Daddy Is A Martyr - Documentary - 2009 - TVRip - XviD-Greekadiko.biz Release - English Subtitles


    Seeders : 1      Leechers : 0

Trackers List

Tracker NameLast CheckStatusSeedersLeechers




Torrent File Content (6 files)


Daddy Is A Martyr
     Daddy Is A Martyr.avi -
368.03 MB

     poster.png -
289.25 KB

     Daddy Is A Martyr_1.jpg -
40.12 KB

     Daddy Is A Martyr_3.jpg -
36.36 KB

     Daddy Is A Martyr_2.jpg -
30.93 KB

     Daddy Is A Martyr.jpg -
21.42 KB



Description



Information:

In this documentary we see what happens and how it goes to be a Martyr in the Arab world.
I have no words to explain this documentary. You better have a look to it to get the right point.




General
Complete name : Daddy Is A Martyr.avi
Format : AVI
Format/Info : Audio Video Interleave
File size : 368 MiB
Duration : 49mn 25s
Overall bit rate : 1 041 Kbps
Writing application : VirtualDubMod 1.5.4.1 (build 2178/release)
Writing library : VirtualDubMod build 2178/release

Video
ID : 0
Format : MPEG-4 Visual
Format profile : Streaming [email protected]
Format settings, BVOP : Yes
Format settings, QPel : No
Format settings, GMC : No warppoints
Format settings, Matrix : Default (H.263)
Muxing mode : Packed bitstream
Codec ID : XVID
Codec ID/Hint : XviD
Duration : 49mn 25s
Bit rate : 904 Kbps
Width : 720 pixels
Height : 544 pixels
Display aspect ratio : 4/3
Frame rate : 29.970 fps
Resolution : 24 bits
Colorimetry : 4:2:0
Scan type : Progressive
Bits/(Pixel*Frame) : 0.077
Stream size : 320 MiB (87%)
Writing library : XviD 1.2.1 (UTC 2008-12-04)

Audio
ID : 1
Format : MPEG Audio
Format version : Version 1
Format profile : Layer 3
Codec ID : 55
Codec ID/Hint : MP3
Duration : 49mn 25s
Bit rate mode : Constant
Bit rate : 128 Kbps
Channel(s) : 2 channels
Sampling rate : 48.0 KHz
Resolution : 16 bits
Stream size : 45.3 MiB (12%)
Alignment : Aligned on interleaves
Interleave, duration : 67 ms (2.00 video frames)
Interleave, preload duration : 504 ms




Screenshots:

http://i49.tinypic.com/6z8mrr.jpg


http://i49.tinypic.com/dfc0ut.jpg


http://i49.tinypic.com/2ds25pz.jpg


http://i45.tinypic.com/28nk9y.jpg



Related torrents

Torrent NameAddedSizeSeedLeechHealth
1 Year+ - in Movies642.17 MB10
1 Year+ - in Movies676.86 MB10
1 Year+ - in Movies707.3 MB00
1 Year+ - in Movies710.01 MB00
1 Year+ - in Movies699.68 MB21

Comments (0 Comments)




Please login or create a FREE account to post comments

Latest Searches

| last word 2016 12 | gratia | Troyboi Flosstradamus Soundclash | ATKHairy milo chase | The X Files 2016 S10E02 1080p HDTV NL Subs SAM 2LT | fh59 | being human 720p uk | blue 65 eiffel | drummer boy pentatonix lyrics | hyde and seek s01e08 hdtv x264 fqm ettv |