Quick Browse
Movies
TV shows
Music
Games
Applications
Anime
Other
Facebook
Advertising

Friends
Torrent Download
Movie4u
1337x.to
Torrent Downloads




Verified torrent Dakota Skye 2010 DVDRIP XViD AC3-26K


    Seeders : 1      Leechers : 0
Hash :DCEB33A2C26ADF8AC26142D9039BEF1F716910D2
Added :1 Year+ by memory100Verified torrent uploader in Movies
Size :1.61 GB
Stream :WATCH ONLINE @ Movie4u


Dakota Skye 2010 DVDRIP XViD AC3-26K
Free and Fast Download with Usenet 300GB+ free







Trackers List

Tracker NameLast CheckStatusSeedersLeechers




Torrent File Content (7 files)


Dakota Skye 2010 DVDRIP XViD AC3-26K
     Dakota Skye 2010 DVDRIP XViD AC3-26K.avi -
1.56 GB

     Dakota Skye 2010 DVDRIP XViD AC3-26K.nfo -
3.64 KB

     HDSceneRG.txt -
115 bytes

     Torrent downloaded from Demonoid.me.txt -
46 bytes

     att-networks.com.txt -
39 bytes

     sample.avi -
50.79 MB

     sceneunderground.org.txt -
77 bytes



Description



http://img11.imageshack.us/img11/6277/skyeeeee.jpg

[code]
Dakota Skye 2010 DVDRIP XViD AC3-26K

Imdb:
http://www.imdb.com/title/tt0907848/

Plot:
For as long as she could remember, Dakota Skye has been cursed with a super power. She has the ability

to see the truth in any lie she hears. From small, harmless white lies, to the more devious kind, they

have come from the people that she should trust the most; her family, friends and teachers. These lies

have snowballed, leading to her becoming bitter and apathetic towards the world around her. Now

seventeen, Dakota just watches the world happen around her, unmotivated to join it.

Sources:
DVDR THNXS!

Notes:
ENJOY!
tagged as 2010 i felt like it.. also the dvdr i have says 2012 in the title...


Greetz:
Xtreme

Encode|FYA|ILLUMANTI|CM8|RX|VISION|HDSCENE|NIGHTMAREZ|xTriLL|DTRG|CRYS|REMIXHD|BIDA|RX|REFILL|INSPiRAL

|SIC|ZOMBIESZ|HOPE|Anonymous|GooN
To all the people who have helped me :P you know who you are

Anything to offer email us @: [email protected]

Video
ID : 0
Format : MPEG-4 Visual
Format profile : Advanced [email protected]
Format settings, BVOP : 1
Format settings, QPel : No
Format settings, GMC : No warppoints
Format settings, Matrix : Default (H.263)
Codec ID : XVID
Codec ID/Hint : XviD
Duration : 1h 28mn
Bit rate : 2 178 Kbps
Width : 720 pixels
Height : 400 pixels
Display aspect ratio : 16:9
Frame rate : 29.970 fps
Color space : YUV
Chroma subsampling : 4:2:0
Bit depth : 8 bits
Scan type : Progressive
Compression mode : Lossy
Bits/(Pixel*Frame) : 0.252
Stream size : 1.35 GiB (87%)
Writing library : XviD 1.2.1 (UTC 2008-12-04)

Audio
ID : 1
Format : AC-3
Format/Info : Audio Coding 3
Mode extension : CM (complete main)
Codec ID : 2000
Duration : 1h 28mn
Bit rate mode : Constant
Bit rate : 320 Kbps
Channel(s) : 6 channels
Channel positions : Front: L C R, Side: L R, LFE
Sampling rate : 44.1 KHz
Bit depth : 16 bits
Compression mode : Lossy
Stream size : 203 MiB (13%)
Alignment : Aligned on interleaves
Interleave, duration : 70 ms (2.09 video frames)
Interleave, preload duration : 208 ms
Title : Title 01

[/code]
Screens:
http://img837.imageshack.us/img837/8771/vlcsnap2012020814h24m09.png

http://img12.imageshack.us/img12/6148/vlcsnap2012020814h23m45.png

http://img72.imageshack.us/img72/6725/vlcsnap2012020814h23m35.png

http://img839.imageshack.us/img839/7847/vlcsnap2012020814h23m32.png


http://img851.imageshack.us/img851/5503/26ks.jpg

Thank you

Related torrents

Torrent NameAddedSizeSeedLeechHealth
Last Month - in Other118.6 MB00
4 months ago - in Other481.3 MB00
4 months ago - in Other316.58 MB00
6 months ago - in Other273 MB00
6 months ago - in Other316.84 MB23

Comments (0 Comments)




Please login or create a FREE account to post comments

Latest Searches

| Honey s Game Pack 4 | powerful woman | The Call rar | microsoft server exchange 2013 | exorcist ita 06 | naval war arctic circle 1 0 8 1 crack | gang gang mgk | berenstain bears books | Wikileaks Iraq War Diaries | ubuntu certified professional study guide viny pdf |