Quick Browse
Movies
TV shows
Music
Games
Applications
Anime
Other
Facebook
Friends
Torrent Download
Movie4u
1337x.to
Torrent Downloads

Danity Kane feat Missy Elliott - Bad Girl {XVID} [Solly4Life]


    Seeders : 9      Leechers : 3


Trackers List

Tracker NameLast CheckStatusSeedersLeechers




Torrent File Content (1 file)


     Danity Kane feat. Missy Elliott - Bad Girl {XVID} [Solly4Life].rar -
74.48 MB



Description



General
Complete name : Danity Kane feat. Missy Elliott - Bad Girl {XVID} [Solly4Life].avi
Format : AVI
Format/Info : Audio Video Interleave
File size : 75.2 MiB
Duration : 4mn 16s
Overall bit rate : 2 455 Kbps
Writing library : Boilsoft Joiner build 2411/release

Video
Format : MPEG-4 Visual
Format profile : Streaming [email protected]
Format settings, BVOP : Yes
Format settings, QPel : No
Format settings, GMC : No warppoints
Format settings, Matrix : Default (H.263)
Muxing mode : Packed bitstream
Codec ID : XVID
Codec ID/Hint : XviD
Duration : 4mn 16s
Bit rate : 2 253 Kbps
Width : 640 pixels
Height : 480 pixels
Display aspect ratio : 4/3
Frame rate : 25.000 fps
Resolution : 24 bits
Colorimetry : 4:2:0
Scan type : Interlaced
Scan order : Bottom Field First
Bits/(Pixel*Frame) : 0.293
Stream size : 69.0 MiB (92%)
Writing library : XviD 1.1.2 (UTC 2006-11-01)

Audio
Format : MPEG Audio
Format version : Version 1
Format profile : Layer 3
Codec ID : 55
Codec ID/Hint : MP3
Duration : 4mn 16s
Bit rate mode : Constant
Bit rate : 192 Kbps
Channel(s) : 2 channels
Sampling rate : 48.0 KHz
Resolution : 16 bits
Stream size : 5.88 MiB (8%)
Alignment : Split accross interleaves
Interleave, duration : 40 ms (1.00 video frame)
Interleave, preload duration : 500 ms


Related torrents

Torrent NameAddedSizeSeedLeechHealth
1 Year+ - in Music10.35 MB00
1 Year+ - in Other4.04 MB11
1 Year+ - in Movies153.05 MB00
9 months ago - in Other6.28 MB00
10 months ago - in Other7.41 MB01

Comments (0 Comments)




Please login or create a FREE account to post comments

Latest Searches

| jericho complete linnik | team skeet Forbidden Family Affairs | its me and my girlfriend | Joes War 2017 HDRip XviD AC3 EVO | thriller series mobi | Brazzers Hot And Mean Gina Valentina | Country Rock 2017 Mp3 | BIRDMAN castellano | BLACKED London Keyes | daz3d hot summer 2016 micro bikini |