Quick Browse
Movies
TV shows
Music
Games
Applications
Anime
Other

Donate and Support

Friends
Torrents.me
Torrent Download
Free Movies
1337x
RARBG
Torrent Downloads

Danity Kane feat Missy Elliott - Bad Girl {XVID} [Solly4Life]


    Seeders : 9      Leechers : 3
Hash :8D7C124867ED5FDC0524CBFD94978EF84C4AFBFC
Added :1 Year+ in Music - Music
Size :74.48 MB
Stream :Watch Full Movies Online @ Movie4u
Share :


Danity Kane feat Missy Elliott - Bad Girl {XVID} [Solly4Life]
Anonymous and Direct Download 300GB+ free







Warning! Do not Download Torrents Without a VPN!
Your IP Address is .   And Location is
Your Internet Provider and Government can track your torrent Activity!  Hide your IP ADDRESS with a VPN!
We Strongly Recommend Using SpyOFF Torrent VPN to Anonymize your Torrenting. It's FREE For 15 Days!

Note :

Please Update (Trackers Info) Before Downloading Torrents to See Updated Seeders And Leechers for Batter Download Speed.

Trackers List

Tracker NameLast CheckStatusSeedersLeechers




Torrent File Content (1 file)


     Danity Kane feat. Missy Elliott - Bad Girl {XVID} [Solly4Life].rar -
74.48 MB



Description



General
Complete name : Danity Kane feat. Missy Elliott - Bad Girl {XVID} [Solly4Life].avi
Format : AVI
Format/Info : Audio Video Interleave
File size : 75.2 MiB
Duration : 4mn 16s
Overall bit rate : 2 455 Kbps
Writing library : Boilsoft Joiner build 2411/release

Video
Format : MPEG-4 Visual
Format profile : Streaming [email protected]
Format settings, BVOP : Yes
Format settings, QPel : No
Format settings, GMC : No warppoints
Format settings, Matrix : Default (H.263)
Muxing mode : Packed bitstream
Codec ID : XVID
Codec ID/Hint : XviD
Duration : 4mn 16s
Bit rate : 2 253 Kbps
Width : 640 pixels
Height : 480 pixels
Display aspect ratio : 4/3
Frame rate : 25.000 fps
Resolution : 24 bits
Colorimetry : 4:2:0
Scan type : Interlaced
Scan order : Bottom Field First
Bits/(Pixel*Frame) : 0.293
Stream size : 69.0 MiB (92%)
Writing library : XviD 1.1.2 (UTC 2006-11-01)

Audio
Format : MPEG Audio
Format version : Version 1
Format profile : Layer 3
Codec ID : 55
Codec ID/Hint : MP3
Duration : 4mn 16s
Bit rate mode : Constant
Bit rate : 192 Kbps
Channel(s) : 2 channels
Sampling rate : 48.0 KHz
Resolution : 16 bits
Stream size : 5.88 MiB (8%)
Alignment : Split accross interleaves
Interleave, duration : 40 ms (1.00 video frame)
Interleave, preload duration : 500 ms


Related torrents

Torrent NameAddedSizeSeedLeechHealth
18 days ago - in Other4.01 MB00
1 Year+ - in Music10.35 MB00
1 Year+ - in Other4.04 MB11
1 Year+ - in Movies153.05 MB00
1 Year+ - in Other6.28 MB00

Comments (0 Comments)




Please login or create a FREE account to post comments

Latest Searches

| Chronixx Chronology 2017 | ashley cameron | 1987 emmylou harris angel band | migos x drake trophies | t pain | Damian Marley Stony Hill 2017 | cbt Oracle Certified Professional OCP | Tom Hooker Back in Time 2CD 2017 | dragon ball z movie 06 return cooler 1992 | sony vegas pro video editing |