Quick Browse
Movies
TV shows
Music
Games
Applications
Anime
Other

Advertising

Friends
Torrents.me
Torrent Download
Free Movies
1337x
RARBG
Torrent Downloads

Danity Kane feat Missy Elliott - Bad Girl {XVID} [Solly4Life]


    Seeders : 9      Leechers : 3

Hash :8D7C124867ED5FDC0524CBFD94978EF84C4AFBFC
Added :1 Year+ in Music - Music
Size :74.48 MB
Stream :Watch Online Full Movie @ Movie4u
Share :








Warning! Do not Download Torrents Without a VPN!
Your IP Address is .   And Location is
Your Internet Provider and Government can track your torrent Activity!  Hide your IP ADDRESS with a VPN!
We Strongly Recommend Using SpyOFF Torrent VPN to Anonymize your Torrenting. It's FREE for 15 Days!

Note :

Please Update (Trackers Info) Before Downloading Torrents to See Updated Seeders And Leechers for Batter Download Speed.

Trackers List

Tracker NameLast CheckStatusSeedersLeechers




Torrent File Content (1 file)


     Danity Kane feat. Missy Elliott - Bad Girl {XVID} [Solly4Life].rar -
74.48 MB



Description



General
Complete name : Danity Kane feat. Missy Elliott - Bad Girl {XVID} [Solly4Life].avi
Format : AVI
Format/Info : Audio Video Interleave
File size : 75.2 MiB
Duration : 4mn 16s
Overall bit rate : 2 455 Kbps
Writing library : Boilsoft Joiner build 2411/release

Video
Format : MPEG-4 Visual
Format profile : Streaming [email protected]
Format settings, BVOP : Yes
Format settings, QPel : No
Format settings, GMC : No warppoints
Format settings, Matrix : Default (H.263)
Muxing mode : Packed bitstream
Codec ID : XVID
Codec ID/Hint : XviD
Duration : 4mn 16s
Bit rate : 2 253 Kbps
Width : 640 pixels
Height : 480 pixels
Display aspect ratio : 4/3
Frame rate : 25.000 fps
Resolution : 24 bits
Colorimetry : 4:2:0
Scan type : Interlaced
Scan order : Bottom Field First
Bits/(Pixel*Frame) : 0.293
Stream size : 69.0 MiB (92%)
Writing library : XviD 1.1.2 (UTC 2006-11-01)

Audio
Format : MPEG Audio
Format version : Version 1
Format profile : Layer 3
Codec ID : 55
Codec ID/Hint : MP3
Duration : 4mn 16s
Bit rate mode : Constant
Bit rate : 192 Kbps
Channel(s) : 2 channels
Sampling rate : 48.0 KHz
Resolution : 16 bits
Stream size : 5.88 MiB (8%)
Alignment : Split accross interleaves
Interleave, duration : 40 ms (1.00 video frame)
Interleave, preload duration : 500 ms


Related torrents

Torrent NameAddedSizeSeedLeechHealth
4 months ago - in Other4.01 MB00
1 Year+ - in Music10.35 MB00
1 Year+ - in Other4.04 MB11
1 Year+ - in Movies153.05 MB00
1 Year+ - in Other6.28 MB00

Note :

Feel free to post any comments about this torrent, including links to Subtitle, samples, screenshots, or any other relevant information. Please Dont Download anything from Comments, And Dont Post Links to Streaming Sites like Fmovies, Xmovies8, 123Movies, GoMovies, CMovieshd, Solarmovie, Watchfree, Putlockers, GoStream, m4ufree etc.

Comments (0 Comments)




Please login or create a FREE account to post comments

Latest Searches

| python intermediate | the game of thrones s 7 e 1 | pirates of carribean dead men tell no tales brrip | stand alone complex ost | Always Watching A Marble Hornets Story ita 2015 | Sharing The Shower 2 Ryan Conner JoJo Kiss | Tribute von Panem Mockingjay | The Legend of Zelda Breath of the | S w a t s01e03 pamilya 2017 | disconnected 720p 2017 |