Quick Browse
Movies
TV shows
Music
Games
Applications
Anime
Other
Facebook
Advertising

Friends
Torrent Download
Movie4u
1337x.to
Torrent Downloads




Verified torrent Dark Moon Rising [2009] [DVD] [AC3] [Hannspree]


    Seeders : 1      Leechers : 0
Hash :D8D9BC58127B5E792ED5D989AC5928A986DAB563
Added :1 Year+ by HannspreeVerified torrent uploader in Movies
Size :1.77 GB
Stream :WATCH ONLINE @ Movie4u


Dark Moon Rising [2009] [DVD] [AC3] [Hannspree]
Free and Fast Download with Usenet 300GB+ free







Trackers List

Tracker NameLast CheckStatusSeedersLeechers




Torrent File Content (11 files)


Dark Moon Rising
    Dark Moon Rising [DVD]
          VIDEO_TS/VIDEO_TS.BUP -
12 KB

          VIDEO_TS/VIDEO_TS.IFO -
12 KB

          VIDEO_TS/VIDEO_TS.VOB -
58 KB

          VIDEO_TS/VTS_01_0.BUP -
84 KB

          VIDEO_TS/VTS_01_0.IFO -
84 KB

          VIDEO_TS/VTS_01_0.VOB -
58 KB

          VIDEO_TS/VTS_01_1.VOB -
1023.97 MB

          VIDEO_TS/VTS_01_2.VOB -
786.58 MB

          Dark Moon Rising [DVD] Covers/Dark Moon Rising - Cover.jpg -
52.16 KB

          Dark Moon Rising [DVD] Covers/Dark Moon Rising - Disc.jpg -
26.03 KB

     Dark Moon Rising [DVD].NFO -
6.72 KB



Description



=========================================================================================================================
[ Another free and high quality, ready to burn DVD - I will be adding new torrents on a daily basis - Remember to seed ]
=========================================================================================================================
MOVIE TITLE: Dark Moon Rising
LANGUAGE: English
MOVIE SUBS: No - (subtitles if/when required)
BURN TESTED: Yes
FORMAT: Pal
GENRE: Crime | Horror | Romance | Thriller
RUNTIME: 125 Minutes
YEAR: 2009
IMDB LINK: http://www.imdb.com/title/tt1231593
=========================================================================================================================
GENERAL MOVIE DESC:

Real love and fate collide in a small town girl's life as Amy falls in love with a mysterious drifter who brings with him a family curse and the unimaginable horror that follows. Bender, who shares the curse with his son, brings hell to Amy's small town. As Dan and Amy's love is put to the test, Thibodeaux, an ex-cop from another city who has witnessed Bender's lust for blood firsthand, Sam, the local sheriff and an ex homicide detective, and John, a local farmer and Amy's father, head for the ultimate showdown with Bender and the evil web of terror that he has drawn them all into.
=========================================================================================================================
GENERAL MOVIE SPECS:

GENERAL:
Complete name : Dark Moon Rising
Format : MPEG-PS
File size : 1.76 GB
Duration : 125 Minutes
Overall bit rate : 1 991 Kbps

VDEIO:
ID : 224 (0xE0)
Format : MPEG Video
Format version : Version 2
Format profile : [email protected]
Format settings, BVOP : Yes
Format settings, Matrix : Default
Duration : 125 Minutes
Bit rate mode : Variable
Bit rate : 1 759 Kbps
Nominal bit rate : 9 608 Kbps
Width : 720 pixels
Height : 576 pixels
Display aspect ratio : 16:9
Frame rate : 24.000 fps
Standard : PAL
Color space : YUV
Chroma subsampling : 4:2:0
Bit depth : 8 bits
Scan type : Progressive
Scan order : 2:2:2:2:2:2:2:2:2:2:2:3 Pulldown
Bits/(Pixel*Frame) : 0.177
Stream size : 905 MiB (88%)

AUDIO:
ID : 128 (0x80)
Format : AC-3
Format/Info : Audio Coding 3
Mode extension : CM (complete main)
Duration : 125 Minutes
Bit rate mode : Constant
Bit rate : 192 Kbps
Channel(s) : 2 channels
Channel positions : Front: L R
Sampling rate : 48.0 KHz
Stream size : 98.7 MiB (10%)
=========================================================================================================================

Related torrents

Torrent NameAddedSizeSeedLeechHealth
11 months ago - in Movies5.2 GB00
1 Year+ - in Movies317.87 MB00
1 Year+ - in Movies1.86 GB00
1 Year+ - in Movies875.11 MB00
1 Year+ - in Movies2.38 GB00

Comments (0 Comments)




Please login or create a FREE account to post comments

Latest Searches

| 22047 | Idavid blake | star boy and | F Justin Timberlake | blues stone | tushy janson olsen | BrazzersExxtra Lela Star Kim K Fucks The Paparazzi | dan wells ruins epub | teen video xxx | Heyzo 16 10 24 Ayu Hanashiro Addicted Will Cheer The Virgin |