Quick Browse
Movies
TV shows
Music
Games
Applications
Anime
Other
Facebook
Advertising

Friends
Torrent Download
Movie4u
1337x.to
Torrent Downloads




Darling - Sweden Movie - 2007 - TVRip - WS - XViD-greekadiko.biz relase - English Subtitles


    Seeders : 1      Leechers : 0

Trackers List

Tracker NameLast CheckStatusSeedersLeechers




Torrent File Content (6 files)


Darling
     Darling.avi -
657.29 MB

     poster.png -
289.25 KB

     Darling_1.jpg -
21.49 KB

     Darling.jpg -
16.18 KB

     Darling_2.jpg -
14.88 KB

     Darling_3.jpg -
13.2 KB



Description



General
Complete name : Darling.avi
Format : AVI
Format/Info : Audio Video Interleave
File size : 657 MiB
Duration : 1h 30mn
Overall bit rate : 1 018 Kbps
Writing application : VirtualDubMod 1.5.4.1 (build 2178/release)
Writing library : VirtualDubMod build 2178/release

Video
ID : 0
Format : MPEG-4 Visual
Format profile : [email protected]
Format settings, BVOP : No
Format settings, QPel : No
Format settings, GMC : No warppoints
Format settings, Matrix : Default (H.263)
Codec ID : XVID
Codec ID/Hint : XviD
Duration : 1h 30mn
Bit rate : 897 Kbps
Width : 720 pixels
Height : 384 pixels
Display aspect ratio : 1.875
Frame rate : 29.970 fps
Resolution : 24 bits
Colorimetry : 4:2:0
Scan type : Progressive
Bits/(Pixel*Frame) : 0.108
Stream size : 580 MiB (88%)
Writing library : XviD 1.2.1 (UTC 2008-12-04)

Audio
ID : 1
Format : MPEG Audio
Format version : Version 1
Format profile : Layer 3
Codec ID : 55
Codec ID/Hint : MP3
Duration : 1h 30mn
Bit rate mode : Variable
Bit rate : 106 Kbps
Nominal bit rate : 128 Kbps
Channel(s) : 2 channels
Sampling rate : 48.0 KHz
Resolution : 16 bits
Stream size : 68.7 MiB (10%)
Alignment : Aligned on interleaves
Interleave, duration : 24 ms (0.72 video frame)
Interleave, preload duration : 534 ms
Writing library : LAME3.98r
Encoding settings : -m j -V 4 -q 2 -lowpass 17 --abr 128



Plot:

The film Focus Sweden tells the tragic and comic tale of beautiful and self-absorbed Eva, who cheats on her boyfriend. This becomes the starting point of her slow but relentless descent and a surprising, but doomed friendship. Directed and written by Johan Kling and stars Michelle Meadows and Michael Segerström Winner Best Actor and Best Cinematography at Guldbagge Awards. (From Sweden in Swedish, English subtitles) (Drama) 2007 M (L,S) WS




Screenshots:

http://i47.tinypic.com/mjr400.jpg


http://i47.tinypic.com/110boli.jpg


http://i50.tinypic.com/4kckeq.jpg


http://i47.tinypic.com/w8avl2.jpg


Related torrents

Torrent NameAddedSizeSeedLeechHealth
1 Year+ - in Movies676.86 MB10
1 Year+ - in Movies707.3 MB00
1 Year+ - in Movies710.01 MB00
1 Year+ - in Movies699.68 MB21
1 Year+ - in Movies739.46 MB11

Comments (0 Comments)




Please login or create a FREE account to post comments

Latest Searches

| kanye yeezus bound | the weekend rockn | vaughan system 4 0 | salt web dl | mobile suit gundam 35 | youtube lynda course | all the leave | the last crusade cbr | s edition 5 | A Zombies Life 0 4 |