Quick Browse
Movies
TV shows
Music
Games
Applications
Anime
Other
Facebook
Advertising

Friends
Torrent Download
Movie4u
1337x.to
Torrent Downloads




David Gray Live At The Point][Avi][cover][hectorbusinspector][h33t]


    Seeders : 0      Leechers : 6

Trackers List

Tracker NameLast CheckStatusSeedersLeechers




Torrent File Content (5 files)


David Gray Live At The Point
     001.jpg -
423.95 KB

     David Gray -
3.49 KB

     introduction to us, we are not pirates.txt -
4.55 KB

     title_01.avi -
863.69 MB

     tracked_by_h33t_com.txt -
23 bytes



Description



*****************************************************************
Recorded At The Point,Dublin.With hard coded subs.
****************************************************************
More than just a phenomenal show, David Gray - Live At The Point captures this acclaimed singer at the moment
of transition from well kept secret to award - winning, platinum selling success.
Singing to 9000 fans that packed the point in Dublin,
this is both a powerful yet intimate show. Featuring songs from all five of David Gray's albums, it includes the hit single Babylon and Please Forgive Me.
**************************************************************
1 Tracklisting.

2 Introduction;

3 Sail Away; .

4 White Ladder.

5 Late Night Radio.

6 Faster Sooner Now.

7 Lead Me Upstairs.

8 Babylon; The Light.

9 We're Not Right.

10 Flame Turns Blue.

11 This Years Love.

12 Coming Down.

13 Shine.

14 A Century Ends.

15 My Oh My; Wisdom.

16 Silver Lining.

18 Please Forgive Me.
*********************************************************
*********************************************************
*********************************************************
Format : AVI
Format/Info : Audio Video Interleave
File size : 864 MiB
Duration : 1h 27mn
Overall bit rate : 1 386 Kbps
Writing application : Encoder 1.0pre8-3.4.2
*********************************************************
Video
Format : MPEG-4 Visual
Format profile : Streaming [email protected]
Format settings, BVOP : Yes
Format settings, QPel : No
Format settings, GMC : No warppoints
Format settings, Matrix : Default (H.263)
Codec ID : XVID
Codec ID/Hint : XviD
Duration : 1h 27mn
Bit rate : 1 245 Kbps
Width : 720 pixels
Height : 576 pixels
Display aspect ratio : 5/4
Frame rate : 25.000 fps
Standard : PAL
Resolution : 24 bits
Colorimetry : 4:2:0
Scan type : Progressive
Bits/(Pixel*Frame) : 0.120
Stream size : 776 MiB (90%)
Writing library : XviD 1.1.0 (UTC 2005-11-22)
**********************************************************
Audio
Format : MPEG Audio
Format version : Version 1
Format profile : Layer 3
Codec ID : 55
Codec ID/Hint : MP3
Duration : 1h 27mn
Bit rate mode : Constant
Bit rate : 128 Kbps
Channel(s) : 2 channels
Sampling rate : 48.0 KHz
Resolution : 16 bits
Video delay : 40ms
Stream size : 79.8 MiB (9%)
Alignment : Aligned on interleaves
Interleave, duration : 24 ms (0.60 video frame)
Interleave, preload duration : 504 ms
Writing library : LAME3.97
**********************************************************

H33t.com.

Please Seed.

please Enjoy.

Tell A Friend.
!!!!!!!!!!!!!!!!!!!!!!!!!!!!!!!!!!!!!!!!!!!!!!!!!!!!!!!!!!!

Related torrents

Torrent NameAddedSizeSeedLeechHealth
1 Year+ - in Music117.99 MB02
1 Year+ - in Music164.89 MB00
1 Year+ - in Music655.9 MB00
1 Year+ - in Music307.19 MB00
1 Year+ - in Movies910.87 MB00

Comments (0 Comments)




Please login or create a FREE account to post comments

Latest Searches

| IKillitts Lexie Beth | the who thirty years of maximum r b | map force | pete rock 8 blocks from tiffanys | MasterChef AU S04E61 WS PDTV XviD BF1 avi | dallas vs minnesota | rilynn rae beautiful brunette | untitled 05 | publicagent Ebony Beauty Fucked in a Car | Johny English Xvid |