Quick Browse
Movies
TV shows
Music
Games
Applications
Anime
Other
Facebook
Advertising

Friends
Torrent Download
Movie4u
1337x.to
Torrent Downloads




Daybreakers.DVDSCR.LINE.XviD-MENTiON


    Seeders : 430      Leechers : 175
Hash :3D8181F8974965E613CF8A7B08C877E610F63B24
Added :1 Year+ in Movies
Size :707.58 MB
Stream :WATCH ONLINE @ Movie4u


Daybreakers.DVDSCR.LINE.XviD-MENTiON
Free and Fast Download with Usenet 300GB+ free







Trackers List

Tracker NameLast CheckStatusSeedersLeechers




Torrent File Content (2 files)


Daybreakers DVDSCR www.IWANNADOWNLOAD.com
     Daybreakers DVDSCR www.IWANNADOWNLOAD.com.avi -
700.7 MB

     Sample.avi -
6.88 MB



Description



http://i47.tinypic.com/2u6g0v4.jpg


Filename:
Daybreakers.DVDSCR.LINE.XviD-MENTiON

http://i49.tinypic.com/9sbcsg.png

http://i50.tinypic.com/28sac1c.png

http://i47.tinypic.com/24d111k.png


http://www.imdb.com/title/tt0433362/

Format : AVI
Format/Info : Audio Video Interleave
File size : 701 MiB
Duration : 1h 33mn
Overall bit rate : 1 044 Kbps
Writing application : VirtualDubMod 1.5.10.2 (build 2540/release)
Writing library : VirtualDubMod build 2540/release

Video
ID : 0
Format : MPEG-4 Visual
Format profile : [email protected]
Format settings, BVOP : Yes
Format settings, QPel : No
Format settings, GMC : No warppoints
Format settings, Matrix : Default (H.263)
Codec ID : XVID
Codec ID/Hint : XviD
Duration : 1h 33mn
Bit rate : 905 Kbps
Width : 640 pixels
Height : 272 pixels
Display aspect ratio : 2.35:1
Frame rate : 25.000 fps
Resolution : 24 bits
Colorimetry : 4:2:0
Scan type : Progressive
Bits/(Pixel*Frame) : 0.208
Stream size : 607 MiB (87%)
Writing library : XviD 1.2.1 (UTC 2008-12-04)

Audio
ID : 1
Format : MPEG Audio
Format version : Version 1
Format profile : Layer 3
Format_Settings_Mode : Joint stereo / MS Stereo
Codec ID : 55
Codec ID/Hint : MP3
Duration : 1h 33mn
Bit rate mode : Variable
Bit rate : 126 Kbps
Channel(s) : 2 channels
Sampling rate : 48.0 KHz
Resolution : 16 bits
Stream size : 84.8 MiB (12%)
Alignment : Aligned on interleaves
Interleave, duration : 24 ms (0.60 video frame)
Interleave, preload duration : 181 ms

Related torrents

Torrent NameAddedSizeSeedLeechHealth
1 Year+ - in Movies700.71 MB00
1 Year+ - in Movies700.71 MB706121
1 Year+ - in Movies707.6 MB91
1 Year+ - in Movies700.71 MB184
1 Year+ - in Movies700.7 MB173
1 Year+ - in Movies700.81 MB556119

Comments (0 Comments)




Please login or create a FREE account to post comments

Latest Searches

| squirter 5 | downton abbey Christmas special 2013 | love me love me live | tag youre it m | blaze of glory monster machines | epub benjamin nugent | hot shot shaggy | hoe s xxx | drown down | Lauv Reforget Milk N Cooks Remix |