Quick Browse
Movies
TV shows
Music
Games
Applications
Anime
Other

Donate and Support

Friends
Torrents.me
Torrent Download
Free Movies
1337x
RARBG
Torrent Downloads

Verified torrent Dead Before Dawn 2012 DVDRip English [ACCIPITER]


    Seeders : 2      Leechers : 0

Hash :0CDA5116D470D2530B6DC163F4ECBEB78D16B786
Added :1 Year+ by souravfileVerified torrent uploader in Movies
Size :693.06 MB
Stream :Watch Online Full Movie @ Movie4u
Share :


Dead Before Dawn 2012 DVDRip English [ACCIPITER]
Anonymous and free Direct Download







Warning! Do not Download Torrents Without a VPN!
Your IP Address is .   And Location is
Your Internet Provider and Government can track your torrent Activity!  Hide your IP ADDRESS with a VPN!
We Strongly Recommend Using SpyOFF Torrent VPN to Anonymize your Torrenting. It's FREE For 15 Days!

Note :

Please Update (Trackers Info) Before Downloading Torrents to See Updated Seeders And Leechers for Batter Download Speed.

Trackers List

Tracker NameLast CheckStatusSeedersLeechers




Torrent File Content (3 files)


Dead Before Dawn 2012 DVDRip English [ACCIPITER]
     Dead Before Dawn 2012 DVDRip English [ACCIPITER].mkv -
693.06 MB

     Torrent Downloaded From Digtorrent.org.txt -
346 bytes

     Torrent downloaded from souravfile torrents on BTScene.eu.txt -
69 bytes



Description



http://hostpicturefree.com/images/bannerlnl.gif


Cover:

http://ia.media-imdb.com/images/M/MV5BMTUyOTc3MjE1OV5BMl5BanBnXkFtZTcwMzkyNDE4Nw@@._V1._SY317_.jpg


Release info:

[code]General
Format : Matroska
Format version : Version 2
File size : 693 MiB
Duration : 1h 24mn
Overall bit rate : 1 143 Kbps


Video
ID : 1
Format : MPEG-4 Visual
Format profile : Advanced [email protected]
Format settings, BVOP : Yes
Format settings, QPel : No
Format settings, GMC : No warppoints
Format settings, Matrix : Default (H.263)
Codec ID : V_MS/VFW/FOURCC / XVID
Codec ID/Hint : XviD
Duration : 1h 24mn
Bit rate : 993 Kbps
Width : 640 pixels
Height : 352 pixels
Display aspect ratio : 16:9
Frame rate mode : Constant
Frame rate : 25.000 fps
Color space : YUV
Chroma subsampling : 4:2:0
Bit depth : 8 bits
Scan type : Progressive
Compression mode : Lossy
Bits/(Pixel*Frame) : 0.176
Stream size : 602 MiB (87%)
Language : English
Default : Yes
Forced : No

Audio
ID : 2
Format : MPEG Audio
Format version : Version 1
Format profile : Layer 3
Mode : Joint stereo
Mode extension : MS Stereo
Muxing mode : Header stripping
Codec ID : A_MPEG/L3
Codec ID/Hint : MP3
Duration : 1h 24mn
Bit rate mode : Constant
Bit rate : 128 Kbps
Channel(s) : 2 channels
Sampling rate : 48.0 KHz
Compression mode : Lossy
Stream size : 77.6 MiB (11%)
Language : English
Default : Yes
Forced : No

Source:
credit to original movie ripper PSiG (Thanks)[/code]

IMDB Info:

[code]A bunch of college kids accidentally unleash an evil curse that causes people to kill themselves and turn into Zombie Demons, aka ZEMONS!

Director: April Mullen
Writer: Tim Doiron
Stars: Devon Bostick, Christopher Lloyd and Martha MacIsaac

Genres: Adventure | Comedy | Horror[/code]

http://www.imdb.com/title/tt1989485/

Screen Shot:

http://hostpicturefree.com/images/vlcsnaziz.png

http://hostpicturefree.com/images/vlcsnarvr.png

http://hostpicturefree.com/images/vlcsnatit.png

http://hostpicturefree.com/images/vlcsnajsj.png

http://hostpicturefree.com/images/vlcsnajjj.png

http://hostpicturefree.com/images/vlcsnaqwq.png

Related torrents

Torrent NameAddedSizeSeedLeechHealth
1 Year+ - in Movies1.07 GB00
1 Year+ - in Movies6.55 GB00
1 Year+ - in Movies1.11 GB00
1 Year+ - in Movies700.64 MB00
1 Year+ - in Movies1.31 GB00

Comments (0 Comments)




Please login or create a FREE account to post comments

Latest Searches

| Diary of nudist | La Bien Querida Ceremonia | DadCrush Audrey Royal And Moka Mora | Sheldonsuckz | Alice s Adventures Under Ground | Bones S05E08 HDTV | b k evenson | I pre veil | Patriot S01E01 S01E01 | Bob Marley e Peter tosh wisdom |