Quick Browse
Movies
TV shows
Music
Games
Applications
Anime
Other
Facebook
Advertising

Friends
Torrent Download
Movie4u
1337x.to
Torrent Downloads




Verified torrent Dead Silence [DVD] [ENG] [AC3] [Hannspree]


    Seeders : 1      Leechers : 3
Hash :E660CE7CF1FB1F78E9E284595A2568141D2B922E
Added :1 Year+ by HannspreeVerified torrent uploader in Movies
Size :1.29 GB
Stream :WATCH ONLINE @ Movie4u


Dead Silence [DVD] [ENG] [AC3] [Hannspree]
Free and Fast Download with Usenet 300GB+ free







Trackers List

Tracker NameLast CheckStatusSeedersLeechers




Torrent File Content (14 files)


Dead Silence
    Dead Silence [DVD]
          VIDEO_TS/VIDEO_TS.BUP -
6 KB

          VIDEO_TS/VIDEO_TS.IFO -
6 KB

          VIDEO_TS/VTS_01_0.BUP -
58 KB

          VIDEO_TS/VTS_01_0.IFO -
58 KB

          VIDEO_TS/VTS_01_1.VOB -
1023.97 MB

          VIDEO_TS/VTS_01_2.VOB -
301.11 MB

    Dead Silence [Screens]
          Dead Silence Screens.jpg -
129.68 KB

     Dead Silence.NFO -
3.94 KB

     Torrent downloaded from Ahashare.com.txt -
47 bytes

     Torrent downloaded from Demonoid.com.txt -
47 bytes

     Torrent downloaded from Genesis-sp.org.txt -
49 bytes

     Torrent downloaded from H33t.org.txt -
43 bytes

     Torrent downloaded from Limetorrents.com.txt -
51 bytes

     Torrent downloaded from Torrentsnet.com.txt -
48 bytes



Description



=====================================================================================
[ Another free, high quality, ready to burn DVD I will be adding new torrents on a daily basis - Remember to seed ]
=====================================================================================
MOVIE TITLE: Dead Silence
LANGUAGE: English
MOVIE SUBS: No
BURN TESTED: Yes
FORMAT: Pal
GENRE: Horror | Mystery | Thriller
RUNTIME: 92 Minutes
YEAR: 2007
IMDB LINK: http://www.imdb.com/title/tt0455760/
=====================================================================================
MOVIE DESC:

From the brilliant horror masters that brought us the Saw franchise, we are offered up another taste of true fear. The story takes place after Jamie Ashen comes home to find his wife Lisa disfigured and dead in their apartment just minutes after a mysterious, not to mention creepy, package was left on their doorstep containing an old ventriloquist dummy. With no alibi, a detective is left to assume Jamie as the prime suspect. Driven by an old ghost story, Jamie returns to Ravens Fair, his old hometown to prove his innocence. The story leads him to believe that the vengeful ghost of Mary Shaw was the real murderer. But when Jamie returns to Ravens Fair, he finds out more than he bargained for.
=====================================================================================
MOVIE SPECS:

GENERAL:
Complete name : Dead Silence
Format : MPEG-PS
File size : 1.29 GB
Duration : 92 Minutes
Overall bit rate : 1 948 Kbps

VIDEO:
ID : 224 (0xE0)
Format : MPEG Video
Format version : Version 2
Format profile : [email protected]
Format settings, BVOP : Yes
Format settings, Matrix : Default
Duration : 92 Minutes
Bit rate mode : Variable
Bit rate : 1 717 Kbps
Nominal bit rate : 8 808 Kbps
Width : 720 pixels
Height : 576 pixels
Display aspect ratio : 4:3
Frame rate : 24.000 fps
Standard : PAL
Color space : YUV
Chroma subsampling : 4:2:0
Bit depth : 8 bits
Scan type : Progressive
Scan order : 2:2:2:2:2:2:2:2:2:2:2:3 Pulldown
Bits/(Pixel*Frame) : 0.173
Stream size : 903 MiB (88%)

AUDIO:
ID : 128 (0x80)
Format : AC-3
Format/Info : Audio Coding 3
Mode extension : CM (complete main)
Duration : 92 Minutes
Bit rate mode : Constant
Bit rate : 192 Kbps
Channel(s) : 2 channels
Channel positions : Front: L R
Sampling rate : 48.0 KHz
Stream size : 101 MiB (10%)
=====================================================================================
TRACKERS:
http://inferno.demonoid.com:3400/announce
http://pow7.com/announce
http://publicbt.ath.cx/announce
http://tracker.torrentbox.com:2710/announce
http://atrack.pow7.com/announce
http://denis.stalker.h3q.com:6969/announce
http://nemesis.1337x.org/announce
http://exodus.1337x.org/announce
http://tracker.publicbt.com/announce
http://10.rarbg.com/announce
http://tracker.ilibr.org:6969/announce
http://rt.beeretracker.net/announce.php
=====================================================================================
FOOT NOTE:
If you are happy with this download, it would be nice to hear your views or comments that you might have. Enjoy
=====================================================================================

Related torrents

Torrent NameAddedSizeSeedLeechHealth
Verified torrent
1 Year+ - in Movies1.05 GB00
Verified torrent
1 Year+ - in Movies1.36 GB129
Verified torrent
1 Year+ - in Movies1.34 GB56
Verified torrent
1 Year+ - in Movies1.7 GB186
Verified torrent
1 Year+ - in Movies1.53 GB62

Comments (0 Comments)




Please login or create a FREE account to post comments

Latest Searches

| day one album | young ass pussy | Sexy Ass 7 | fly s only future | Dale Carnegie How To Stop Worrying And Start Living | gf revenge 12 06 | Nerve full hd full movie | 1440p defloration | anime land one piece 735 720p hi10p arabic mkv | ed sheeran dont netsky |