Quick Browse
Movies
TV shows
Music
Games
Applications
Anime
Other
Facebook
Advertising

Friends
Torrent Download
Movie4u
1337x.to
Torrent Downloads




Deal.2008.iTALiAN.LiMITED.DVDRip.XviD-Republic.[ultimafrontiera]


    Seeders : 0      Leechers : 0

Trackers List

Tracker NameLast CheckStatusSeedersLeechers




Torrent File Content (1 file)


     Deal.2008.iTALiAN.LiMITED.DVDRip.XviD-Republic.avi -
699.38 MB



Description




http://i35.tinypic.com/23vevc8.jpg


http://i35.tinypic.com/w2hnr9.jpg


http://i36.tinypic.com/2wlzn9f.jpg


Titolo originale: Deal
Nazione:USA
Anno:2008
Genere: Commedia
Durata: 86 minuti
Regia:Gil Cates Jr
Produzione:



http://i34.tinypic.com/301n9ec.jpg


[color=#00FF00]Burt Reynolds, Bret Harrison, Shannon Elizabeth, Maria Mason, Gary Grubbs, Caroline McKinley, Charles Durning, Brandon Olive, Jennifer Tilly, Jon Eyez[/color]

http://i33.tinypic.com/2ldeeyr.jpg


[color=orange]Un ex giocatore d'azzardo insegna ad un ragazzo del college i trucchi del mestiere. Si ritroverà ad accompagnare il suo pupillo nella world series di poker e la sua più grande difficoltà starà nel proteggerlo.[/color]


http://i34.tinypic.com/1z1495e.jpg


[code]Format : AVI
Format/Info : Audio Video Interleave
File size : 699 MiB
Duration : 1h 22mn
Overall bit rate : 1 189 Kbps
Writing application : VirtualDubMod 1.5.10.2 (build 2540/release)
Writing library : VirtualDubMod build 2540/release

Video
ID : 0
Format : MPEG-4 Visual
Format profile : [email protected]
Format settings, BVOP : Yes
Format settings, QPel : No
Format settings, GMC : No warppoints
Format settings, Matrix : Default (MPEG)
Codec ID : XVID
Codec ID/Hint : XviD
Duration : 1h 22mn
Bit rate : 1 054 Kbps
Width : 624 pixels
Height : 352 pixels
Display aspect ratio : 16:9
Frame rate : 25.000 fps
Resolution : 24 bits
Colorimetry : 4:2:0
Scan type : Progressive
Bits/(Pixel*Frame) : 0.192
Stream size : 620 MiB (89%)
Writing library : XviD 1.2.1 (UTC 2008-12-04)

Audio
ID : 1
Format : MPEG Audio
Format version : Version 1
Format profile : Layer 3
Codec ID : 55
Codec ID/Hint : MP3
Duration : 1h 22mn
Bit rate mode : Variable
Bit rate : 123 Kbps
Nominal bit rate : 128 Kbps
Channel(s) : 2 channels
Sampling rate : 48.0 KHz
Resolution : 16 bits
Stream size : 72.1 MiB (10%)
Alignment : Aligned on interleaves
Interleave, duration : 24 ms (0.60 video frame)[/code]


http://i38.tinypic.com/34hbbjr.jpg


http://www.youtube.com/watch?v=Z0RKIneiiyM

Related torrents

Torrent NameAddedSizeSeedLeechHealth
1 Year+ - in Movies699.99 MB1325
1 Year+ - in Movies1.37 GB00
1 Year+ - in Movies699.93 MB00
1 Year+ - in Movies699.94 MB29
1 Year+ - in Movies699.96 MB132

Comments (0 Comments)




Please login or create a FREE account to post comments

Latest Searches

| 12 k | TELUGU AAVAHAM movie | lust network | wind power dummies | uptown rnb | fifth harmony track | S Storm 2016 S Storm 2016 | fa cup highlights 2016 | French Montana dont 0 | miss may i rise of the lion |