Quick Browse
Movies
TV shows
Music
Games
Applications
Anime
Other
Facebook
Advertising

Friends
Torrent Download
Movie4u
1337x.to
Torrent Downloads




Deewaar 2004 Hindi DVDRip x264 xRG


    Seeders : 0      Leechers : 0
Hash :6AB8B80F250E434F16FE255976475A7CC8203296
Added :1 Year+ in Movies
Size :894.76 MB
Stream :WATCH ONLINE @ Movie4u


Deewaar 2004 Hindi DVDRip x264 xRG
Free and Fast Download with Usenet 300GB+ free







Trackers List

Tracker NameLast CheckStatusSeedersLeechers




Torrent File Content (1 file)


     Deewaar 2004 Hindi DVDRip x264 xRG.mp4 -
894.76 MB



Description



Deewaar 2004 Hindi DVDRip x264 xRG

DVDRip Info

Video

Codec : x264
Duration : 2h 40mn
Bit rate mode : Variable
Bit rate : 657 Kbps
Maximum bit rate : 1 832 Kbps
Width : 608 pixels
Height : 256 pixels
Display aspect ratio : 2.35:1
Frame rate mode : Constant
Frame rate : 23.976 fps
Resolution : 24 bits
Colorimetry : 4:2:0
Scan type : Progressive
Stream size : 754 MiB (84%)

Audio

Format : AAC
Duration : 2h 40mn
Bit rate mode : Variable
Bit rate : 120 Kbps
Maximum bit rate : 136 Kbps
Channel(s) : 6 channels
Channel positions : Front: L C R, Rear: L R, LFE
Sampling rate : 48.0 KHz
Resolution : 16 bits
Stream size : 137 MiB (15%)

Related torrents

Torrent NameAddedSizeSeedLeechHealth
1 Year+ - in Movies1019.67 MB00
1 Year+ - in Movies3.71 GB10
1 Year+ - in Movies894.76 MB113
1 Year+ - in Movies984.33 MB117
1 Year+ - in Movies3 GB93

Comments (0 Comments)




Please login or create a FREE account to post comments

Latest Searches

| me myself i oliver | season 4 Chicago pd | P3dv3 | Good Girls Gone Bad 2013 DVDRip | eddy grant eddy grant | sweetness follows r e m | truth books | roxio creator nxt 5 serials | Vanguard pit | l storm |