Quick Browse
Movies
TV shows
Music
Games
Applications
Anime
Other

Latest Articles

Friends
Torrents.me
Torrent Download
Free Movies
1337x
RARBG
Torrent Downloads

Deewaar 2004 Hindi DVDRip x264 xRG


    Seeders : 0      Leechers : 0

Hash :6AB8B80F250E434F16FE255976475A7CC8203296
Added :1 Year+ in Movies
Size :894.76 MB
Stream :Watch Online Full Movie @ Movie4u
Share :


Deewaar 2004 Hindi DVDRip x264 xRG
Download Direct And Anonymously







Warning! Do not Download Torrents Without a VPN!
Your IP Address is .   And Location is
Your Internet Provider and Government can track your torrent Activity!  Hide your IP ADDRESS with a VPN!
We Strongly Recommend Using CyberGhost VPN to Anonymize your Torrenting.

Note :

Please Update (Trackers Info) Before Downloading Torrents to See Updated Seeders And Leechers for Batter Download Speed.

Trackers List

Tracker NameLast CheckStatusSeedersLeechers




Torrent File Content (1 file)


     Deewaar 2004 Hindi DVDRip x264 xRG.mp4 -
894.76 MB



Description



Deewaar 2004 Hindi DVDRip x264 xRG

DVDRip Info

Video

Codec : x264
Duration : 2h 40mn
Bit rate mode : Variable
Bit rate : 657 Kbps
Maximum bit rate : 1 832 Kbps
Width : 608 pixels
Height : 256 pixels
Display aspect ratio : 2.35:1
Frame rate mode : Constant
Frame rate : 23.976 fps
Resolution : 24 bits
Colorimetry : 4:2:0
Scan type : Progressive
Stream size : 754 MiB (84%)

Audio

Format : AAC
Duration : 2h 40mn
Bit rate mode : Variable
Bit rate : 120 Kbps
Maximum bit rate : 136 Kbps
Channel(s) : 6 channels
Channel positions : Front: L C R, Rear: L R, LFE
Sampling rate : 48.0 KHz
Resolution : 16 bits
Stream size : 137 MiB (15%)

Related torrents

Torrent NameAddedSizeSeedLeechHealth
4 months ago - in Movies2 GB12
1 Year+ - in Movies1019.67 MB00
1 Year+ - in Movies3.71 GB10
1 Year+ - in Movies894.76 MB113
10 months ago - in Movies1.59 GB00

Note :

Feel free to post any comments about this torrent, including links to Subtitle, samples, screenshots, or any other relevant information. Please Dont Download anything from Comments, And Dont Post Links to Streaming Sites like Fmovies, Xmovies8, 123Movies, GoMovies, CMovieshd, Solarmovie, Watchfree, Putlockers, GoStream, m4ufree etc.

Comments (0 Comments)




Please login or create a FREE account to post comments

Latest Searches

| Caribbeancom 061516 185 | utopia s01e02 avi | The Royals 2015 S03E01 HDTV x264 FLEET | Boy a 2008 | rocky 4 720p dual audio | rosina | Send Personally for Outlook Express bulk Email enhancer | The Hunger For | Mustang Ranch 1 | ozlem 1080p transformers |