Quick Browse
Movies
TV shows
Music
Games
Applications
Anime
Other
Facebook
Advertising

Friends
Torrent Download
Movie4u
1337x.to
Torrent Downloads




Verified torrent Despicable Me (2010) CAM XviD - TA - {XtremeTorrents}


    Seeders : 47      Leechers : 7

Trackers List

Tracker NameLast CheckStatusSeedersLeechers




Torrent File Content (6 files)


NORAR_Despicable.Me.2010.CAM.XviD-TA
     Despicable.Me.2010.CAM.XviD-TA.avi -
1.36 GB

     NW RG.nfo -
12.96 KB

     NW RG.txt -
127 bytes

     Sample.avi -
32.16 MB

     Torrent downloaded from Demonoid.com.txt -
47 bytes

     bsbt.nfo -
5.75 KB



Description



http://trackeraccess.org/covers/pics/b758b2a9a15f5d0c9d7f617672122799.png


Plot:
In a happy suburban neighborhood surrounded by white picket fences with flowering rose bushes, sits a black house with a dead lawn. Unbeknownst to the neighbors, hidden beneath this home is a vast secret hideout. Surrounded by a small army of minions, we discover Gru (voiced by Steve Carell), planning the biggest heist in the history of the world. He is going to steal the moon. (Yes, the moon!) Gru delights in all things wicked. Armed with his arsenal of shrink rays, freeze rays, and battle-ready vehicles for land and air, he vanquishes all who stand in his way. Until the day he encounters the immense will of three little orphaned girls who look at him and see something that no one else has ever seen: a potential Dad. The world's greatest villain has just met his greatest challenge: three little girls named Margo, Edith and Agnes.


Source : Our Own (THANKS SLUGGER)
Complete name : Despicable.Me.2010.CAM.XviD-TA.avi
Format : AVI
Format/Info : Audio Video Interleave
File size : 1.36 GiB
Duration : 1h 18mn
Overall bit rate : 2 478 Kbps
Writing library : VirtualDub build 32661/release

Video
ID : 0
Format : MPEG-4 Visual
Format profile : [email protected]
Format settings, BVOP : Yes
Format settings, QPel : No
Format settings, GMC : No warppoints
Format settings, Matrix : Default (H.263)
Muxing mode : Packed bitstream
Codec ID : XVID
Codec ID/Hint : XviD
Duration : 1h 18mn
Bit rate : 2 339 Kbps
Width : 640 pixels
Height : 368 pixels
Display aspect ratio : 16:9
Frame rate : 29.970 fps
Resolution : 24 bits
Colorimetry : 4:2:0
Scan type : Progressive
Bits/(Pixel*Frame) : 0.331
Stream size : 1.28 GiB (94%)
Writing library : XviD 1.2.1 (UTC 2008-12-04)

Audio
ID : 1
Format : MPEG Audio
Format version : Version 1
Format profile : Layer 3
Codec ID : 55
Codec ID/Hint : MP3
Duration : 1h 18mn
Bit rate mode : Constant
Bit rate : 128 Kbps
Channel(s) : 2 channels
Sampling rate : 44.1 KHz
Resolution : 16 bits
Stream size : 72.0 MiB (5%)
Alignment : Split accross interleaves
Interleave, duration : 33 ms (1.00 video frame)
Interleave, preload duration : 500 ms
Writing library : LAME3.97

http://i31.tinypic.com/s3ghso.jpg

Related torrents

Torrent NameAddedSizeSeedLeechHealth
Verified torrent
1 Year+ - in Movies652.07 MB7425
1 Year+ - in TV shows703.65 MB1,163230
1 Year+ - in Movies703.65 MB318
1 Year+ - in Movies699.43 MB123
1 Year+ - in Movies785.08 MB3618

Comments (1 comment)




candy96
» Downloaded this torrent Downloaded this torrent » Voted Good Voted Good for this torrent for this torrent

Added 1 Year+
A10/V9 nice job
Please login or create a FREE account to post comments

Latest Searches

| lets fall in | Whats your life like Lil durk | Gyorgy Szabados Trio Elfelejtett enekek Forgotten Songs 1996 FLAC | herald digital | grand tour 720p s01e03 | flac discography guns roses | cohen darker | lets fall in | trance emanuele congeddu hiroki nagamine namida vital soho vsr001 2014 mp3 320 kbps | 80S y 90s mix |