Quick Browse
Movies
TV shows
Music
Games
Applications
Anime
Other
Facebook
Advertising

Friends
Torrent Download
Movie4u
1337x.to
Torrent Downloads




Verified torrent Despicable Me PPVRiP XVID AC3 Hive-CM8


    Seeders : 477      Leechers : 402
Hash :6C6EB3398168D75137B76A118F476DE05A666A1A
Added :1 Year+ by memory100Verified torrent uploader in Movies
Size :1.37 GB
Stream :WATCH ONLINE @ Movie4u


Despicable Me PPVRiP XVID AC3 Hive-CM8
Free and Fast Download with Usenet 300GB+ free







Trackers List

Tracker NameLast CheckStatusSeedersLeechers




Torrent File Content (6 files)


Despicable.Me.PPVRiP.XVID.AC3.Hive-CM8
     Despicable.Me.PPVRiP.XVID.AC3.Hive-CM8.avi -
1.36 GB

     Despicable.Me.PPVRiP.XVID.AC3.Hive-CM8.nfo -
3.3 KB

     NW RG.nfo -
12.96 KB

     NW RG.txt -
126 bytes

     Pleas read!!!!.txt -
126 bytes

     sample.avi -
6.61 MB



Description



http://img543.imageshack.us/img543/9775/despicablemever2.jpg

[code]
Despicable.Me.PPVRiP.XVID.AC3.Hive-CM8

Thx Hive

CM8 Doing It Right The First Time

Source: Despicable Me PPVRiP AC3 XViD - IMAGiNE
THX imagine for video and audio

Encode:
as everyone noticed the ar is way off. after trying a lot with different aspects i noticed its very simple, the source is 4:3 and not 16:9 so by just changing the aspect to 4:3 and correcting the 16:9 width it gets as it should be.
i cleaned the audio from hiss, hum and noise, got 80% rid of it. more would attack the voice clearance. but its better now.

Video: 528x384 @bitrate 1800 2pass
Audio: AC3 2.0 Stereo
Sample: Yes included

General
Complete name : Despicable.Me.PPVRiP.XVID.AC3.Hive-CM8.avi
Format : AVI
Format/Info : Audio Video Interleave
File size : 1.36 GiB
Duration : 1h 34mn
Overall bit rate : 2 065 Kbps
Writing application : Nandub v1.0rc2
Writing library : Nandub build 1853/release

Video
ID : 0
Format : MPEG-4 Visual
Format profile : Advanced [email protected]
Format settings, BVOP : Yes
Format settings, QPel : Yes
Format settings, GMC : No warppoints
Format settings, Matrix : Default (H.263)
Muxing mode : Packed bitstream
Codec ID : XVID
Codec ID/Hint : XviD
Duration : 1h 34mn
Bit rate : 1 800 Kbps
Width : 528 pixels
Height : 384 pixels
Display aspect ratio : 1.375
Frame rate : 23.976 fps
Color space : YUV
Chroma subsampling : 4:2:0
Bit depth : 8 bits
Scan type : Progressive
Bits/(Pixel*Frame) : 0.370
Stream size : 1.19 GiB (87%)
Writing library : XviD 1.2.1 (UTC 2008-12-04)

Audio
ID : 1
Format : AC-3
Format/Info : Audio Coding 3
Mode extension : CM (complete main)
Codec ID : 2000
Duration : 1h 34mn
Bit rate mode : Constant
Bit rate : 256 Kbps
Channel(s) : 2 channels
Channel positions : Front: L R
Sampling rate : 48.0 KHz
Bit depth : 16 bits
Stream size : 173 MiB (12%)
Alignment : Split accross interleaves
Interleave, duration : 42 ms (1.00 video frame)
Interleave, preload duration : 500 ms

Greetz

DiGiTALiNK -iNK, IMAGiNE, LEGi0N, LUSi,ViSiON,MAGNET,CLASSiFiED,
MEMORY100,goldadvance,SAFC,Unevano,Pinnz,Wayne
and all P2P groups
Great Work Guys
[/code]
Screens:
http://img191.imageshack.us/img191/5402/dm1u.png

http://img35.imageshack.us/img35/2261/dm2l.png

Related torrents

Torrent NameAddedSizeSeedLeechHealth
1 Year+ - in Movies1.37 GB682
Verified torrent
1 Year+ - in Movies1.37 GB5117
1 Year+ - in Movies1 GB120
1 Year+ - in Movies812.75 MB12
1 Year+ - in Movies1.4 GB2162

Comments (1 comment)




sometallguy
» Downloaded this torrent Downloaded this torrent » Voted Good Voted Good for this torrent for this torrent

Added 1 Year+
Keep in mind Pay per view copy. Full screen. V8 A8
Please login or create a FREE account to post comments

Latest Searches

| long weekends s01e01 | lol Wayne hit em up | alexis texas 2016 big ass | long weekends s01e02 | The Greatest Hits Of Christmas Various K Tel 2004 | long weekends s01e03 | long weekends s01e04 | atkgirlfriends olivia lua | long weekends s01e05 | Kiss Resurrected |