Quick Browse
Movies
TV shows
Music
Games
Applications
Anime
Other
Facebook
Advertising

Friends
Torrent Download
Movie4u
1337x.to
Torrent Downloads




Destination Truth [Monster Hunters] - S04E08 - Guam Zombies-Fangalobolo.[tNe.XViD].avi


    Seeders : 23      Leechers : 2

Trackers List

Tracker NameLast CheckStatusSeedersLeechers




Torrent File Content (1 file)


     Destination Truth - S04E08 - Guam Zombies-Fangalobolo.[tNe.XViD].avi -
348.95 MB



Description



Format : AVI
Format/Info : Audio Video Interleave
File size : 349 MiB
Duration : 43mn 35s
Overall bit rate : 1,119 Kbps
Writing application : Lavf51.13.4
Writing library : VirtualDub build 32839/release

Video
ID : 0
Format : MPEG-4 Visual
Format profile : Advanced [email protected]
Format settings, BVOP : Yes
Format settings, QPel : No
Format settings, GMC : No warppoints
Format settings, Matrix : Default (H.263)
Codec ID : XVID
Codec ID/Hint : XviD
Duration : 43mn 35s
Bit rate : 978 Kbps
Width : 624 pixels
Height : 352 pixels
Display aspect ratio : 16:9
Frame rate : 29.970 fps
Color space : YUV
Chroma subsampling : 4:2:0
Bit depth : 8 bits
Scan type : Progressive
Bits/(Pixel*Frame) : 0.149
Stream size : 305 MiB (87%)
Writing library : XviD 1.2.1 (UTC 2008-12-04)

Audio
ID : 1
Format : MPEG Audio
Format version : Version 1
Format profile : Layer 3
Codec ID : 55
Codec ID/Hint : MP3
Duration : 43mn 34s
Bit rate mode : Constant
Bit rate : 128 Kbps
Channel(s) : 2 channels
Sampling rate : 44.1 KHz
Stream size : 39.9 MiB (11%)
Alignment : Aligned on interleaves
Interleave, duration : 26 ms (0.78 video frame)
Interleave, preload duration : 522 ms

Related torrents

Torrent NameAddedSizeSeedLeechHealth
Verified torrent
1 Year+ - in TV shows2.73 GB00
1 Year+ - in TV shows348.46 MB94
1 Year+ - in TV shows347.93 MB125
1 Year+ - in TV shows348.01 MB75
1 Year+ - in TV shows348.89 MB32

Comments (0 Comments)




Please login or create a FREE account to post comments

Latest Searches

| malware anti malware full crack | Bianca christmas | boomerang 1992 soundtrack | NIKITA ALEXA SEX PARTY WITH 3 MEN | MomXXX Bibi Fox MILF lust in glasses and stockings 29 08 16 rq | catch cheating | ya heard | the cape s01 hdtv | HardcoreGangBang Moka Mora The Crucible Parody Gangbang 30 11 16 mp4 | alex t 1080p |