Quick Browse
Movies
TV shows
Music
Games
Applications
Anime
Other

Donate and Support

Friends
Torrents.me
Torrent Download
Free Movies
1337x
RARBG
Torrent Downloads

Verified torrent Devils Playground[2010]DvDrip-LW


    Seeders : 32      Leechers : 4
Hash :463FB7E968FF56AE711FE17105B3883EA8DCE875
Added :1 Year+ by XoLWoXVerified torrent uploader in Movies
Size :700.61 MB
Stream :Watch Full Movies Online @ Movie4u
Share :


Devils Playground[2010]DvDrip-LW
Anonymous and Direct Download 300GB+ free







Warning! Do not Download Torrents Without a VPN!
Your IP Address is .   And Location is
Your Internet Provider and Government can track your torrent Activity!  Hide your IP ADDRESS with a VPN!
We Strongly Recommend Using SpyOFF Torrent VPN to Anonymize your Torrenting. It's FREE For 15 Days!

Note :

Please Update (Trackers Info) Before Downloading Torrents to See Updated Seeders And Leechers for Batter Download Speed.

Trackers List

Tracker NameLast CheckStatusSeedersLeechers




Torrent File Content (6 files)


Devils Playground[2010]DvDrip-LW
    Info
          Movie Info.nfo -
14.63 KB

          Movie Info.txt -
3.1 KB

    Movie
          Devils Playground[2010]DvDrip-LW.avi -
700.39 MB

    Poster
          DP-Cover.png -
205.37 KB

    Trackers
          Torrent downloaded from AhaShare.com.txt -
59 bytes

          tracked_by_h33t_com.txt -
23 bytes



Description



http://imgr.us/images/tz9dutrgzm79m7160wm0.png

[color=lime]-------------------------------------------------[/color]
http://imgr.us/images/q9oy4odn5053an1o867h.png

[color=lime]-------------------------------------------------[/color]
File Name : Devil's Playground[2010]DvDrip-LW
Type : Movie
Format : AVI
File Size : 700 MB
Duration : 01:33:39
Language : English
Source : DvD
Subtitles : None
Genre : Action | Horror
IMDB Link : http://www.imdb.com/title/tt1453245/
[color=lime]-------------------------------------------------[/color]
http://imgr.us/images/a14k8fabur54ad5gubq4.png

[color=lime]-------------------------------------------------[/color]
Format : MPEG-4 Visual
Format profile : Advanced [email protected]
Format settings, BVOP : Yes
Format settings, QPel : No
Format settings, GMC : No warppoints
Format settings, Matrix : Default (H.263)
Muxing mode : Packed bitstream
Codec ID : XVID
Codec ID/Hint : XviD
Duration : 1h 32mn
Bit rate : 929 Kbps
Width : 672 pixels
Height : 288 pixels
Display aspect ratio : 2.35:1
Frame rate : 25.000 fps
Color space : YUV
Chroma subsampling : 4:2:0
Bit depth : 8 bits
Scan type : Progressive
Bits/(Pixel*Frame) : 0.192
Stream size : 616 MiB (88%)
Writing library : XviD 57
-------------------------------------------------
http://imgr.us/images/2s0oz5wrpxo5em2q6m.png

-------------------------------------------------
Format : MPEG Audio
Format version : Version 1
Format profile : Layer 3
Mode : Joint stereo
Mode extension : MS Stereo
Codec ID : 55
Codec ID/Hint : MP3
Duration : 1h 32mn
Bit rate mode : Variable
Bit rate : 115 Kbps
Channel(s) : 2 channels
Sampling rate : 44.1 KHz
Stream size : 76.2 MiB (11%)
Alignment : Aligned on interleaves
Interleave, duration : 26 ms (0.65 video frame)
Interleave, preload duration : 475 ms
Writing library : LAME3.98.4
[color=lime]-------------------------------------------------[/color]
http://imgr.us/images/bnnacqs56aalgsuyqma.png

[color=lime]-------------------------------------------------[/color]
As the world succumbs to a zombie apocalypse,
Cole a hardened mercenary, is chasing the one person
who can provide a cure. Not only to the plague but
to Cole's own incumbent destiny. DEVIL'S PLAYGROUND
is a cutting edge British horror film that features
zombies portrayed by free runners for a terrifyingly
authentic representation of the undead

Director: Mark McQueen
[color=lime]-------------------------------------------------[/color]
http://imgr.us/images/7clcz7gn5qp6df9a7b1t.png

http://imgr.us/images/psarftjja6ararzb0q5.png

http://imgr.us/images/ymycznm4v3w5ag5rrltf.png

http://imgr.us/images/ewuby9nj99h1ddsw4.png

http://imgr.us/images/0ehzvoadx96br4xtmwc.png

http://imgr.us/images/7rgm0ksfzo80z3a89xs7.jpg

Related torrents

Torrent NameAddedSizeSeedLeechHealth
1 Year+ - in Movies2.03 GB00
1 Year+ - in Movies705.99 MB119
1 Year+ - in Movies2.08 GB12
1 Year+ - in Movies413.14 MB00
1 Year+ - in Movies877.16 MB118

Comments (0 Comments)




Please login or create a FREE account to post comments

Latest Searches

| RARBG blues | the upside of irrationality audiobook | Mr Joe B Carvalho 2014 720p DVD Rip Hindi AC3 5 1 Esubs PKG | ao no exorcist 1 25 480p | xploder keygen | Passion HD Kayla Kayden NEW APRIL 13 2015 720p | ichi the killer dts | whitney houston i will always love you | close Haley | rj the game |