Quick Browse
Movies
TV shows
Music
Games
Applications
Anime
Other

Donate and Support

Friends
Torrents.me
Torrent Download
Free Movies
1337x
RARBG
Torrent Downloads

Verified torrent Devolved 2010 BRRip 720p H264-MXMG


    Seeders : 1      Leechers : 1

Hash :129CC368A154778E104C5ED868CE3C5DDFEEB94E
Added :1 Year+ by MXMGVerified torrent uploader in Movies
Size :2.21 GB
Stream :Watch Online Full Movie @ Movie4u


Devolved 2010 BRRip 720p H264-MXMG
Anonymous and free Direct Download







Warning! Do not Download Torrents Without a VPN!
Your IP Address is .   And Location is
Your Internet Provider and Government can track your torrent Activity!  Hide your IP ADDRESS with a VPN!
We Strongly Recommend Using SpyOFF Torrent VPN to Anonymize your Torrenting. It's FREE For 15 Days!

Note :

Please Update (Trackers Info) Before Downloading Torrents to See Updated Seeders And Leechers for Batter Download Speed.

Trackers List

Tracker NameLast CheckStatusSeedersLeechers




Torrent File Content (8 files)


Devolved 2010 BRRip 720p H264-MXMG
     Devolved.mp4 -
2.19 GB

     Devolved(00h35m17s-00h36m17s)-sample.m4v -
21.17 MB

     Devolved.mp4_snapshot_00.41.png -
760.58 KB

     Devolved.mp4_snapshot_00.11.png -
513.44 KB

     Devolved.mp4_snapshot_01.19.png -
379.68 KB

     Devolved.mp4_snapshot_01.07.png -
351.97 KB

     Torrent downloaded from Demonoid.me.txt -
46 bytes

     Torrent downloaded from Silvertorrents.me.txt -
41 bytes



Description



http://img715.imageshack.us/img715/9099/1564563h.jpg



[code]iMDB................................: http://www.imdb.com/title/tt1297925/


Plot :
Devolved is a racy teen satire that follows a group of high schoolers on an ill-fated whale watching trip who find themselves stranded on a deserted island off the Mexican Coast.



General
Format : MPEG-4
Format profile : Base Media
File size : 2.19 GiB
Duration : 1h 25mn
Overall bit rate : 3 668 Kbps


Video
Format : AVC
Format/Info : Advanced Video Codec
Format profile : [email protected]
Format settings, CABAC : Yes
Format settings, ReFrames : 4 frames
Format settings, GOP : M=4, N=46
Codec ID/Info : Advanced Video Coding
Duration : 1h 25mn
Bit rate mode : Variable
Bit rate : 3 339 Kbps
Maximum bit rate : 29.1 Mbps
Width : 1 280 pixels
Height : 688 pixels
Display aspect ratio : 1.860
Frame rate mode : Constant
Frame rate : 23.976 fps
Color space : YUV
Chroma subsampling : 4:2:0
Bit depth : 8 bits
Scan type : Progressive
Bits/(Pixel*Frame) : 0.158
Stream size : 1.99 GiB (91%)
Writing library : x264 core 115 r1995 c1e60b9


Audio
Format : AAC
Format/Info : Advanced Audio Codec
Duration : 1h 25mn
Bit rate mode : Variable
Bit rate : 326 Kbps
Maximum bit rate : 412 Kbps
Channel(s) : 6 channels
Channel positions : Front: L C R, Side: L R, LFE
Sampling rate : 48.0 KHz
Compression mode : Lossy
Stream size : 199 MiB (9%)
Language : English




Subtitles : None
Source : BluRay 720p-SEMTEX
Sample : Included
[/code]


http://img163.imageshack.us/img163/715/devolvedmp4snapshot0119.png

http://img847.imageshack.us/img847/6457/devolvedmp4snapshot0107.png




[code]Trackers :
http://inferno.demonoid.me:3394/announce
http://fr33dom.h33t.com:3310/announce
http://nemesis.1337x.org/announce
http://exodus.1337x.org:80/announce
http://genesis.1337x.org:1337/announce
[/code]


[code]
Feel free to visit and select your range and suite of seedboxes and hosting plans.
Recomended by MXMG as these servers seed for your Dowloading @ 25MB/s
http://www.chociz.com/

^COMPATiBLE MODES.......: XBOX-360/PSP/PS3/WDTV

FiND THE GENUiNE MXMG RELEASES @ TORRENTSTATE
HiGHEST QUALiTY iN COMFORTABLE SiZE ...
[/code]

Related torrents

Torrent NameAddedSizeSeedLeechHealth
1 Year+ - in Movies2.15 GB120
1 Year+ - in Movies2.15 GB225
1 Year+ - in Movies2.05 GB14
Verified torrent
1 Year+ - in Movies2.15 GB10
Verified torrent
1 Year+ - in Movies1.46 GB12

Comments (0 Comments)




Please login or create a FREE account to post comments

Latest Searches

| girls and trans | Whose Line is it Anyway US S12E01 720p HDTV x264 W4F | in resturant | blaire ivory Fresh | Visual Web Ripper 2 129 14 Patch 100 Working | katrina moreno bathtub | s Go Black For More 4 | Beta white | amadahy lexi | the king and i avi |