Quick Browse
Movies
TV shows
Music
Games
Applications
Anime
Other
Facebook
Advertising

Friends
Torrent Download
Movie4u
1337x.to
Torrent Downloads




Verified torrent Dexter S06E03 Smokey and the Bandit HDTV XviD-Eng Sub_Ita-[IDN_CREW]


    Seeders : 1      Leechers : 0

Trackers List

Tracker NameLast CheckStatusSeedersLeechers




Torrent File Content (2 files)


Dexter.S06E03.Smokey.and.the.Bandit.HDTV.XviD-Eng.Sub_Ita-[IDN_CREW]
     Dexter.S06E03.Smokey.and.the.Bandit.HDTV.XviD-Eng.Sub_Ita-[IDN_CREW].avi -
550 MB

     IDN_CREW Leggimi.txt -
294 bytes



Description



http://img5.imageshack.us/img5/5605/dexterfirstlook60011081.jpg


[color=red]Dexter – Season 6 [/color]
HDTv Eng mp3 Sub Ita

http://img514.imageshack.us/img514/1502/inforelease.png



[color=red]Titolo:[/color] Dexter
[color=red]Anno: [/color]2011
[color=red]Nazionalità: [/color]USA
[color=red]Genere:[/color] Drammatico - Poliziesco
[color=red]Lingua:[/color] Inglese
[color=red]Stagione:[/color] 6
[color=red]Episodi:[/color] 12
[color=red]Durata Episodio:[/color] 50 min ca (episodio)
[color=red]Ideatore:[/color] James Manos, Jr.
[color=red]Produttori:[/color] Daniel Cerone, Clyde Phillips, John Goldwyn, Sara Colleton
[color=red]Rete Televisiva (USA):[/color] Showtime

http://img710.imageshack.us/img710/1291/dexter150x150.jpg


http://img685.imageshack.us/img685/5835/casta.png


•Dexter Morgan interpretato da Michael C. Hall;
•Debra Morgan interpretata da Jennifer Carpenter;
•Maria LaGuerta interpretata da Lauren Vélez;
•Angel Batista interpretato da David Zayas
•Vincent "Vince" Masuka interpretato da C. S. Lee;
•Harrison "Harry" Morgan interpretato da James Remar;
•Joseph "Joey" Quinn interpretato da Desmond Harrington;
Nuove Guest-star:
•Sam interpretato da Mos Def
•Travis interpretato da Colin Hanks
•Professor Gellar interpretato da Edward James Olmos
•Jamie Batista interpretto da Aimme Garcia
•Mike Anderson interpretato da Billy Brown

http://img153.imageshack.us/img153/7608/tramao.png


http://img15.imageshack.us/img15/2813/dexterzq.jpg


[color=red] È passato un anno dall’emozionante e scioccante finale della quinta stagione, e il serial killer Dexter è giunto a patti con la propria identità. Ma la sua esistenza verrà sconvolta dall’incontro con un nemico diverso dagli altri affrontati in passato. Un folle fanatico religioso certo delle proprie convinzioni che coinvolgerà Dexter in un gioco che potrebbe concludersi in un disastro. [/color]

http://img864.imageshack.us/img864/7976/episodi.png


[color=red]6x01 Those Kinds of Things
6x02 Once Upon a Time
6x03 Smokey and the Bandit
6x04 A Horse of a Different Color
6x05 The Angel of Death
6x06 Just Let Go
6x07 Nebraska
6x08 Sins of Omission
6x09 Get Geller
6x10 The Devil's Errand
6x11 ……
6x12 ……
[/color]

http://img190.imageshack.us/img190/7663/recension.png


http://img163.imageshack.us/img163/8214/dexterfeatured.jpg

[color=red] Quest’anno la religione avrà un ruolo centrale nella serie, anche per l’ingresso in scena di fratello Sam (interpretato da Mos Def), un ex detenuto che sembra aver trovato la retta via grazie alla fede, ma che in realtà prosegue nella lunga scia di violenza che lo caratterizzava prima del suo arresto.
Dexter Morgan (Michael C. Hall) entrerà in contatto con la religione e con la fede, e inizierà a chiedersi se la sua può essere o no una missione.
[/color]

http://img529.imageshack.us/img529/7286/datifile.png


http://img189.imageshack.us/img189/2629/dexterstagione6serialtv.jpg


Programma usato: AVIRecomp

Sottotitoli impressi a video

General
Complete name : Dexter.S06E03.Smokey.and.the.Bandit.HDTV.XviD-Eng.Sub_Ita-[IDN_CREW].avi
Format : AVI
Format/Info : Audio Video Interleave
File size : 550 MiB
Duration : 50mn 22s
Overall bit rate : 1 526 Kbps
Writing application : VirtualDubMod 1.5.10.2 (build 2542/release)
Writing library : VirtualDubMod build 2542/release

Video
Format : MPEG-4 Visual
Format profile : Streaming [email protected]
Format settings, BVOP : Yes
Format settings, QPel : No
Format settings, GMC : No warppoints
Format settings, Matrix : Default
Muxing mode : Packed bitstream
Codec ID : XVID
Codec ID/Hint : XviD
Duration : 50mn 22s
Bit rate : 1 368 Kbps
Width : 624 pixels
Height : 352 pixels
Display aspect ratio : 16/9
Frame rate : 23.976 fps
Resolution : 24 bits
Colorimetry : 4:2:0
Scan type : Progressive
Bits/(Pixel*Frame) : 0.260
Stream size : 493 MiB (90%)
Writing library : XviD 62

Audio
Format : MPEG Audio
Format version : Version 1
Format profile : Layer 3
Codec ID : 55
Codec ID/Hint : MP3
Duration : 50mn 22s
Bit rate mode : Variable
Bit rate : 146 Kbps
Channel(s) : 2 channels
Sampling rate : 48.0 KHz
Resolution : 16 bits
Stream size : 52.6 MiB (10%)
Alignment : Aligned on interleaves
Interleave, duration : 24 ms (0.58 video frame)
Interleave, preload duration : 411 ms




http://img20.imageshack.us/img20/4974/screenshotsph.png


http://img256.imageshack.us/img256/6663/thumbs20111003233722.jpg


Ringraziamenti: [color=red] Per i Sottotitoli ad Itasa[/color]

Related torrents

Torrent NameAddedSizeSeedLeechHealth
Verified torrent
1 Year+ - in TV shows469.09 MB05
1 Year+ - in TV shows447 MB00
1 Year+ - in TV shows340 MB00
1 Year+ - in TV shows338.99 MB10
1 Year+ - in TV shows358.09 MB10

Comments (0 Comments)




Please login or create a FREE account to post comments

Latest Searches

| tyler chelsea | Krampus 2015 | Veruca James Dixie Comet | you know lol wayne | the babes com | nelly sexy | Riley Reid Is The Interracial Princess She Found Her Big Black Prince | indian scandals week 2016 3 | papoose where u at | romance wayne |