Quick Browse
Movies
TV shows
Music
Games
Applications
Anime
Other
Facebook
Friends
Torrent Download
Free Movies
1337x.to
Torrent Downloads

Verified torrent Dharm Adhikari (1986) Hindi DvD - Rip - Xvid - { MT }


    Seeders : 0      Leechers : 0
Hash :ADFB18E2FC8368CF9FB40F20625AC7CA876D6F03
Added :1 Year+ by mastitorrentsVerified torrent uploader in Movies
Size :1.11 GB
Stream :Watch Full Movies Online @ Movie4u
Share :


Dharm Adhikari (1986) Hindi DvD - Rip - Xvid - { MT }
Anonymous and Direct Download 300GB+ free







Warning! Do not Download Torrents Without a VPN!
Your IP Address is .   And Location is
Your Internet Provider and Government can track your torrent Activity!  Hide your IP ADDRESS with a VPN!
We Strongly Recommend Using OneVPN’s Torrent VPN to Anonymize your Torrenting. It's Very Cheap!

Note :

Please Update (Trackers Info) Before Downloading Torrents to See Updated Seeders And Leechers for Batter Download Speed.

Trackers List

Tracker NameLast CheckStatusSeedersLeechers




Torrent File Content (4 files)


Dharm Adhikari (1986) DvD - Rip - Xvid - { MT }
     Dharm Adhikari (1986) DvD - Rip - Xvid - { MT }.avi -
1.11 GB

     2.JPG -
50.85 KB

     1.JPG -
45.28 KB

     main.jpg -
25.92 KB



Description



[color=blue][font=Georgia]Ripper : Rahul
Complete name : Dharm Adhikari (1986)
Format : AVI
Format/Info : Audio Video Interleave
File size : 1.11 GiB
Duration : 2h 32mn
Overall bit rate : 1 041 Kbps

Video
ID : 0
Format : MPEG-4 Visual
Format profile : [email protected]
Format settings, BVOP : Yes
Format settings, QPel : No
Format settings, GMC : No warppoints
Format settings, Matrix : Default (H.263)
Codec ID : XVID
Codec ID/Hint : XviD
Duration : 2h 32mn
Bit rate : 900 Kbps
Width : 640 pixels
Height : 480 pixels
Display aspect ratio : 4:3
Frame rate : 29.970 fps
Color space : YUV
Chroma subsampling : 4:2:0
Bit depth : 8 bits
Scan type : Progressive
Bits/(Pixel*Frame) : 0.098
Stream size : 981 MiB (86%)

Audio
ID : 1
Format : MPEG Audio
Format version : Version 1
Format profile : Layer 3
Mode : Joint stereo
Mode extension : MS Stereo
Codec ID : 55
Codec ID/Hint : MP3
Duration : 2h 32mn
Bit rate mode : Constant
Bit rate : 128 Kbps
Channel(s) : 2 channels
Sampling rate : 44.1 KHz
Stream size : 139 MiB (12%)
Alignment : Aligned on interleaves
Interleave, duration : 26 ms (0.78 video frame)
Interleave, preload duration : 52 ms
Writing library : LAME3.97
[/font][/color]

http://img153.imageshack.us/img153/7459/24201943.jpg

http://img411.imageshack.us/img411/4669/34033595.jpg

http://img832.imageshack.us/img832/5017/76746378.jpg

http://img195.imageshack.us/img195/2266/37210585.jpg

http://img442.imageshack.us/img442/6194/75957603.jpg

http://img571.imageshack.us/img571/6605/36395479.jpg

http://img535.imageshack.us/img535/5840/74774052.jpg

http://img84.imageshack.us/img84/1930/49501866.jpg


Related torrents

Torrent NameAddedSizeSeedLeechHealth
Verified torrent
1 Year+ - in Movies1.36 GB210
1 Year+ - in Movies559.18 MB13
1 Year+ - in Movies661.89 MB31
1 Year+ - in Movies249.51 MB00
1 Year+ - in Movies822.43 MB00

Comments (0 Comments)




Please login or create a FREE account to post comments

Latest Searches

| 1080p hevc Archive Pack | Naruto 4 | nanotecnologia viaje fantastico | saving ryan italian | As The light does the shadow Funeral | q WM | The RootsHow I Got Over | One more time 2017 | big bud farming simulator | kinks hd |