Quick Browse
Movies
TV shows
Music
Games
Applications
Anime
Other
Facebook
Friends
Torrent Download
Movie4u
1337x.to
Torrent Downloads

Verified torrent Diamond - Got Alot Of Money [KingPinVideos]


    Seeders : 24      Leechers : 0
Hash :4D1692D587B6C6EEAC5292D767284E687C54B0A7
Added :1 Year+ by KingPinVerified torrent uploader in Music - Music Videos
Size :74.81 MB
Stream :WATCH ONLINE @ Movie4u


Diamond - Got Alot Of Money [KingPinVideos]
Anonymous and Direct Download 300GB+ free








Trackers List

Tracker NameLast CheckStatusSeedersLeechers




Torrent File Content (5 files)


Diamond - Got Alot Of Money [KingPinVideos]
     Diamond - Got Alot Of Money [KingPinVideos].mpg -
74.8 MB

     Diamond - Got Alot Of Money [KingPinVideos].nfo -
1.99 KB

     Diamond - Got Alot Of Money [KingPinVideos].txt -
1.63 KB

     Torrent downloaded from Demonoid.com.txt -
47 bytes

     Torrent Downloaded from Limetorrents.com.txt -
46 bytes



Description



http://a.imageshack.us/img412/7112/diamondmoney.png


http://a.imageshack.us/img205/2801/diamondmoney2.png


[code]General
Complete name : Diamond - Got Alot Of Money [KingPinVideos].mpg
Format : MPEG-PS
File size : 74.8 MiB
Duration : 3mn 39s
Overall bit rate : 2 856 Kbps
Writing library : encoded by TMPGEnc 4.0 XPress Version. 4.7.4.299

Video
ID : 224 (0xE0)
Format : MPEG Video
Format version : Version 1
Format settings, BVOP : Yes
Format settings, Matrix : Default
Duration : 3mn 39s
Bit rate mode : Constant
Bit rate : 2 615 Kbps
Nominal bit rate : 2 700 Kbps
Width : 384 pixels
Height : 208 pixels
Display aspect ratio : 16:9
Frame rate : 29.970 fps
Resolution : 8 bits
Scan type : Progressive
Bits/(Pixel*Frame) : 1.092
Stream size : 68.5 MiB (92%)
Writing library : TMPGEnc XPress 4.7.4.299

Audio
ID : 192 (0xC0)
Format : MPEG Audio
Format version : Version 1
Format profile : Layer 2
Duration : 3mn 39s
Bit rate mode : Constant
Bit rate : 128 Kbps
Channel(s) : 2 channels
Sampling rate : 48.0 KHz
Stream size : 3.35 MiB (4%[/code]

Related torrents

Torrent NameAddedSizeSeedLeechHealth
1 Year+ - in Music5.2 MB00
Verified torrent
1 Year+ - in Music139.66 MB206
1 Year+ - in Other4.37 GB01
1 Year+ - in Other4.12 GB19
1 Year+ - in Music1.42 GB00

Comments (0 Comments)




Please login or create a FREE account to post comments

Latest Searches

| little twigget | Trolls nl 2016 | s01e06 trial error | fat joe remy ma french Montana infared all the way up | wolf dream m r polish | Barry the fish | Trey Songz Tremaine The Album 2017 Mp3 320kbps | The Detour S02E07 HDTV x264 LOL | Visual essentials | s01e05 trial error |