Quick Browse
Movies
TV shows
Music
Games
Applications
Anime
Other
Facebook
Advertising

Friends
Torrent Download
Movie4u
1337x.to
Torrent Downloads




Verified torrent Diary of a Wimpy Kid 2 Rodrick Rules 2011 BRRip AC3 XViD-EP1C


    Seeders : 606      Leechers : 263

Trackers List

Tracker NameLast CheckStatusSeedersLeechers




Torrent File Content (8 files)


Diary.of.a.Wimpy.Kid.2.Rodrick.Rules.2011.BRRip.AC3.XViD-EP1C
     Budget seedboxs.txt -
44 bytes

     Diary.of.a.Wimpy.Kid.2.Rodrick.Rules.2011.BRRip.AC3.XViD-EP1C.avi -
1.37 GB

     Diary.of.a.Wimpy.Kid.2.Rodrick.Rules.2011.BRRip.AC3.XViD-EP1C.nfo -
3.71 KB

     NW RG.nfo -
12.96 KB

     Sample.avi -
12.16 MB

     dreamthe.net.txt -
91 bytes

     northernwarriors.net.txt -
135 bytes

     sceneunderground.org.txt -
77 bytes



Description



http://img818.imageshack.us/img818/3976/diaryy.jpg

[code]
::File:: Diary.of.a.Wimpy.Kid.2.Rodrick.Rules.2011.BRRip.AC3.XViD-EP1C

::Video Source:: Diary.of.a.Wimpy.Kid.2.Rodrick.Rules.2011.720p.BluRay.x264.DTS-WiKi

::Language:::::: English
::IMDB:::::::::: http://www.imdb.com/title/tt1650043/
Back in middle school after summer vacation, Greg Heffley and his older
brother Rodrick must deal with their parents' misguided attempts to have them bond.

::Specs:::::::::

Format : AVI
Format/Info : Audio Video Interleave
File size : 1.37 GiB
Duration : 1h 39mn
Overall bit rate : 1 970 Kbps
Writing application : VirtualDubMod 1.5.10.2 (build 2540/release)
Writing library : VirtualDubMod build 2540/release

Video
ID : 0
Format : MPEG-4 Visual
Format profile : Advanced [email protected]
Format settings, BVOP : Yes
Format settings, QPel : No
Format settings, GMC : No warppoints
Format settings, Matrix : Default (MPEG)
Muxing mode : Packed bitstream
Codec ID : XVID
Codec ID/Hint : XviD
Duration : 1h 39mn
Bit rate : 1 513 Kbps
Width : 720 pixels
Height : 304 pixels
Display aspect ratio : 2.35:1
Frame rate : 23.976 fps
Color space : YUV
Chroma subsampling : 4:2:0
Bit depth : 8 bits
Scan type : Progressive
Bits/(Pixel*Frame) : 0.288
Stream size : 1.05 GiB (77%)
Writing library : XviD 58

Audio
ID : 1
Format : AC-3
Format/Info : Audio Coding 3
Mode extension : CM (complete main)
Codec ID : 2000
Duration : 1h 39mn
Bit rate mode : Constant
Bit rate : 448 Kbps
Channel(s) : 6 channels
Channel positions : Front: L C R, Side: L R, LFE
Sampling rate : 48.0 KHz
Bit depth : 16 bits
Stream size : 319 MiB (23%)
Alignment : Split accross interleaves
Interleave, duration : 42 ms (1.00 video frame)
Interleave, preload duration : 500 ms

::NOTES:::::::::
Presents Diary of a Wimpy Kid 2: Rodrick Rules BRRIP.
[/code]
Screens:
http://img842.imageshack.us/img842/8378/70463690.png

http://img38.imageshack.us/img38/7623/58778378.png

http://img822.imageshack.us/img822/2893/86709764.png

http://img101.imageshack.us/img101/6407/50567996.png

http://img31.imageshack.us/img31/8790/25331892.png

Related torrents

Torrent NameAddedSizeSeedLeechHealth
1 Year+ - in Movies1.38 GB2228
1 Year+ - in Movies1.38 GB00
1 Year+ - in Movies1.37 GB00
1 Year+ - in Movies1.38 GB00
1 Year+ - in Movies1.36 GB00

Comments (0 Comments)




Please login or create a FREE account to post comments

Latest Searches

| Daniel Freedman Imagine That | arrow season 2 complete series | jarhead ita 2 3 | tom jerry 2014 avi | Mom beautiful pussy | hallmark A Nutcracker Christmas 2016 | fast getaway mp4 | rb greatest playlist | jarhead ita 2 3 | Marco V Godd |