Quick Browse
Movies
TV shows
Music
Games
Applications
Anime
Other
Facebook
Advertising

Friends
Torrent Download
Movie4u
1337x.to
Torrent Downloads




Did You Hear About The Morgans TS Imagine Norar


    Seeders : 27      Leechers : 33
Hash :33B5351EEC45E8CC26E4B7BAE2F51825C30F04D3
Added :1 Year+ in Movies
Size :1.36 GB
Stream :WATCH ONLINE @ Movie4u


Did You Hear About The Morgans TS Imagine Norar
Free and Fast Download with Usenet 300GB+ free







Trackers List

Tracker NameLast CheckStatusSeedersLeechers




Torrent File Content (2 files)


Did You Hear About The Morgans TS Imagine www.iwannadownload.com
     Did You Hear About the Morgans TS www.iwannadownload.com.avi -
1.33 GB

     Sample.avi -
28.85 MB



Description



http://www.imdb.com/title/tt1314228/
Video Sample:
http://www.movshare.net/video/xalb5qi2qhhuz
Video
ID : 0
Format : MPEG-4 Visual
Format profile : [email protected]
Format settings, BVOP : Yes
Format settings, QPel : No
Format settings, GMC : No warppoints
Format settings, Matrix : Default (MPEG)
Muxing mode : Packed bitstream
Codec ID : XVID
Codec ID/Hint : XviD
Duration : 1h 38mn
Bit rate : 1 814 Kbps
Width : 640 pixels
Height : 272 pixels
Display aspect ratio : 2.35:1
Frame rate : 25.000 fps
Resolution : 24 bits
Colorimetry : 4:2:0
Scan type : Progressive
Bits/(Pixel*Frame) : 0.417
Stream size : 1.25 GiB (94%)
Writing library : XviD 1.2.1 (UTC 2008-12-04)

Audio
ID : 1
Format : MPEG Audio
Format version : Version 2
Format profile : Layer 3
Format_Settings_Mode : Joint stereo / Intensity Stereo + MS Stereo
Codec ID : 55
Codec ID/Hint : MP3
Duration : 1h 38mn
Bit rate mode : Constant
Bit rate : 96.0 Kbps
Channel(s) : 2 channels
Sampling rate : 22.05 KHz
Resolution : 16 bits
Video delay : 50ms
Stream size : 67.9 MiB (5%)
Alignment : Split accross interleaves
Interleave, duration : 40 ms (1.00 video frame)
Interleave, preload duration : 500 ms


Related torrents

Torrent NameAddedSizeSeedLeechHealth
1 Year+ - in Movies1.36 GB00
1 Year+ - in Movies1.33 GB86120
1 Year+ - in Movies4.12 GB00
1 Year+ - in Movies1.33 GB212128
1 Year+ - in Movies4.37 GB00

Comments (0 Comments)




Please login or create a FREE account to post comments

Latest Searches

| dont want to to know | The Wanted Heart Vacancy | anal justine | dont want to to know | hot old lady | LegalPorno Black Buster Selvaggia 18yo used like a slut | dr seuss how the grinch stole christmas book | motherwell v celtic | Secret Video Recorder v10 pro | barcelona hivern nit |