Quick Browse
Movies
TV shows
Music
Games
Applications
Anime
Other

Donate and Support

Friends
Torrents.me
Torrent Download
Free Movies
1337x
RARBG
Torrent Downloads

Dil Tainu Karda Ae Pyar - 2012 - PUNJABI - Super CamRip - DviX - 1CDRip - [SDR]


    Seeders : 1      Leechers : 4

Warning! Do not Download Torrents Without a VPN!
Your IP Address is .   And Location is
Your Internet Provider and Government can track your torrent Activity!  Hide your IP ADDRESS with a VPN!
We Strongly Recommend Using SpyOFF Torrent VPN to Anonymize your Torrenting. It's FREE For 15 Days!

Note :

Please Update (Trackers Info) Before Downloading Torrents to See Updated Seeders And Leechers for Batter Download Speed.

Trackers List

Tracker NameLast CheckStatusSeedersLeechers




Torrent File Content (9 files)


Dil Tainu Karda Ae Pyar - 2012 - PUNJABI - Super CamRip - DviX - 1CDRip - [SDR]
     CoVerDTKAP.jpg -
307.76 KB

     Dil Tainu Karda Ae Pyar - 2012 - PUNJABI - Super CamRip - DviX - 1CDRip - [SDR].avi -
697.03 MB

     Downloaded from ExtarTorrent.com.txt -
32 bytes

     Read Me First For Details...txt -
1.19 KB

     SDR on FaceBook.txt -
380 bytes

     Screenshots - 1.png -
119.32 KB

     Screenshots - 2.png -
260.08 KB

     Screenshots - 3.png -
218.5 KB

     Screenshots - 4.png -
216.6 KB



Description



By Jagatjeet
Cover
http://imageshack.us/a/img18/3873/coverdtkap.jpg


http://img249.imageshack.us/img249/1102/753ec787.png

Rip Information
Code: Avi
Format : AVI
Format version : Version 2
File size : 698MiB
Duration : 1h 56m
Overall bit rate : 1 522 Kbps
Movie name : Dil Tainu Karda Ae Pyar - 2012 - PUNJABI - Super CamRip - DviX - 1CDRip - [SDR]
Encoded date : UTC 2012-12-05 16:43:04

Video
Code:
Format : AVC
Format/Info : Advanced Video Codec
Format profile : [email protected]
Format settings, CABAC : Yes
Format settings, ReFrames : 4 frames
Muxing mode : Header stripping
Codec ID : V_MPEG4/ISO/AVC
Duration : 2h 2mn
Bit rate : 1 073 Kbps
Width : 288 pixels
Height : 544 pixels
Display aspect ratio : 2.35:1
Frame rate : 29.970 fps
Color space : YUV
Chroma subsampling : 4:2:0
Bit depth : 8 bits
Scan type : Progressive
Bits/(Pixel*Frame) : 0.051
Stream size : 500 MiB (69%)
Title : Track 1
Writing library : x264 core 125 r2200 999b753

Audio
Code:
Format : AC-3
Format/Info : Audio Coding 3
Mode extension : CM (complete main)
Format settings, Endianness : Big
Muxing mode : Header stripping
Codec ID : A_AC3
Duration : 2h 2mn 16s
Bit rate mode : Constant
Bit rate : 448 Kbps
Channel(s) : 6 channels
Channel positions : Front: L C R, Side: L R, LFE
Sampling rate : 48.0 KHz
Bit depth : 16 bits
Compression mode : Lossy
Stream size : 440 MiB (29%)
Title : Track 1
Language : Punjabi

http://img183.imageshack.us/img183/493/f4685723.png


http://imageshack.us/a/img13/2571/30969027.png


http://imageshack.us/a/img24/8108/86721030.png


http://imageshack.us/a/img694/6169/42550420.png


http://imageshack.us/a/img834/9207/36641439.png



http://i878.photobucket.com/albums/ab341/djrajiv/30m7gcojpg.gif



http://i1227.photobucket.com/albums/ee432/djrajiv2009/48655751775352955506.gif


http://kastatic.com/i2/users/0f72845cdfe90fb87159e2930d3a4736.gif


http://kastatic.com/i2/users/574d5c240d52ebb26b9eeb3634a87b07.gif




http://img526.imageshack.us/img526/5956/hf7asze69mv.png


http://kastatic.com/i2/users/6da6d2becaa013d9afbae59ca1bc4f02.gif


http://torrent-stats.info/6adc/dbdd40fc.png


[URL=http://info.flagcounter.com/rpNa]
http://s01.flagcounter.com/count/rpNa/bg_FFAD8F/txt_000000/border_CCCCCC/columns_8/maxflags_250/viewers_0/labels_1/pageviews_1/flags_1/
[/URL]
[size=7][color=silver]By SDR[/color][/size]

//kat.ph/userwidget/JagatJeetSan.png

Related torrents

Torrent NameAddedSizeSeedLeechHealth
1 Year+ - in Movies1.21 GB00
1 Year+ - in Movies518.63 MB374
1 Year+ - in Movies518.63 MB00
1 Year+ - in Music74.44 MB136
1 Year+ - in Music26.52 MB00

Comments (0 Comments)




Please login or create a FREE account to post comments

Latest Searches

| s Like It Big Elektra Rose Stay Away From My Step Daughter May 16 2015 | AAP KA SUROOR 2007 XRG | Georgie Lyall Forbidden Fruit | AI for Game Developers | Tennessee Timberlake | daz3d poser elevator hallway | f love iggy | assist 7 pro | harry potter a lacole des sorciers | Keisha Grey Interracial Her Asshole Will Judge Dredd Big Black Cock |