Quick Browse
Movies
TV shows
Music
Games
Applications
Anime
Other
Facebook
Advertising

Friends
Torrent Download
Movie4u
1337x.to
Torrent Downloads




Verified torrent Dirty Girl 2011 DVDRip XVID AC3-26K


    Seeders : 1      Leechers : 0
Hash :7EA245F439A122BCB7A3C1EDCA62F1BB5CAD5D21
Added :1 Year+ by memory100Verified torrent uploader in Movies
Size :1.28 GB
Stream :WATCH ONLINE @ Movie4u


Dirty Girl 2011 DVDRip XVID AC3-26K
Free and Fast Download with Usenet 300GB+ free







Trackers List

Tracker NameLast CheckStatusSeedersLeechers




Torrent File Content (9 files)


Dirty Girl 2011 DVDRip XVID AC3-26K
     att-networks.com.txt -
39 bytes

     Dirty Girl 2011 DVDRip XVID AC3-26K.avi -
1.26 GB

     Dirty Girl 2011 DVDRip XVID AC3-26K.idx -
51.52 KB

     Dirty Girl 2011 DVDRip XVID AC3-26K.nfo -
3.84 KB

     Dirty Girl 2011 DVDRip XVID AC3-26K.sub -
4.19 MB

     HDSceneRG.txt -
115 bytes

     sample.avi -
17.45 MB

     sceneunderground.org.txt -
77 bytes

     Torrent downloaded from Demonoid.me.txt -
46 bytes



Description



http://img857.imageshack.us/img857/738/dirygirl.jpg

[code]
Dirty Girl 2011 DVDRip XVID AC3-26K

Imdb:
http://www.imdb.com/title/tt1107319/

Plot:
It's 1987 and Danielle, the high school 'Dirty Girl', is running away. With her is chubby, gay Clarke, a

bag of flour called Joan and a Walkman full of glorious '80s tunes.

Sources:
DVDR THNXS!!

Notes:
Encoded the video added a few filters to make it look nice :)
thnxs to CM8 for cleaned up line audio you rock :) good job !
English subs included!

Greetz:
Xtreme Encode|FYA|ILLUMANTI|CM8|RX|VISION|HDSCENE|NIGHTMAREZ|xTriLL|DTRG|CRYS|REMIXHD|BIDA|RX|REFILL|

INSPiRAL|SIC
To all the people who have helped me :P you know who you are

Anything to offer email us @: [email protected]

Video
ID : 0
Format : MPEG-4 Visual
Format profile : Advanced [email protected]
Format settings, BVOP : 2
Format settings, QPel : No
Format settings, GMC : No warppoints
Format settings, Matrix : Default (H.263)
Muxing mode : Packed bitstream
Codec ID : XVID
Codec ID/Hint : XviD
Duration : 1h 29mn
Bit rate : 1 558 Kbps
Width : 720 pixels
Height : 304 pixels
Display aspect ratio : 2.35:1
Frame rate : 23.976 fps
Color space : YUV
Chroma subsampling : 4:2:0
Bit depth : 8 bits
Scan type : Progressive
Compression mode : Lossy
Bits/(Pixel*Frame) : 0.297
Stream size : 996 MiB (77%)
Writing library : XviD 1.2.1 (UTC 2008-12-04)

Audio
ID : 1
Format : AC-3
Format/Info : Audio Coding 3
Mode extension : CM (complete main)
Codec ID : 2000
Duration : 1h 29mn
Bit rate mode : Constant
Bit rate : 448 Kbps
Channel(s) : 6 channels
Channel positions : Front: L C R, Side: L R, LFE
Sampling rate : 48.0 KHz
Bit depth : 16 bits
Compression mode : Lossy
Stream size : 286 MiB (22%)
Alignment : Aligned on interleaves
Interleave, duration : 32 ms (0.77 video frame)
Interleave, preload duration : 32 ms

[/code]
Screens:
http://img849.imageshack.us/img849/9074/vlcsnap2012010922h09m19.png

http://img864.imageshack.us/img864/430/vlcsnap2012010922h09m24.png

http://img3.imageshack.us/img3/6124/vlcsnap2012010922h09m37.png

http://img52.imageshack.us/img52/1135/vlcsnap2012010922h10m03.png

http://img40.imageshack.us/img40/4893/vlcsnap2012010922h11m11.png

http://img576.imageshack.us/img576/9703/vlcsnap2012010922h13m42.png

http://img196.imageshack.us/img196/131/vlcsnap2012010922h13m49.png

http://img812.imageshack.us/img812/5015/vlcsnap2012010922h13m52.png

http://img822.imageshack.us/img822/9605/vlcsnap2012010922h13m55.png

http://img820.imageshack.us/img820/4946/vlcsnap2012010922h14m00.png


http://img851.imageshack.us/img851/5503/26ks.jpg

Thank you smallz for banner!

Related torrents

Torrent NameAddedSizeSeedLeechHealth
1 Year+ - in Movies2.24 GB5547
Verified torrent
1 Year+ - in Movies2.24 GB00
1 Year+ - in Movies1.96 GB2129
1 Good
Verified torrent
1 Year+ - in Movies1.66 GB1,8354,828
Verified torrent
1 Year+ - in Movies1.25 GB00

Comments (0 Comments)




Please login or create a FREE account to post comments

Latest Searches

| silk his | 9 cats | long weekends s01e01 | lol Wayne hit em up | alexis texas 2016 big ass | long weekends s01e02 | The Greatest Hits Of Christmas Various K Tel 2004 | long weekends s01e03 | long weekends s01e04 | atkgirlfriends olivia lua |