Quick Browse
Movies
TV shows
Music
Games
Applications
Anime
Other
Facebook
Advertising

Friends
Torrent Download
Movie4u
1337x.to
Torrent Downloads




Don 2 - HDScam - XviD - 1CD - Team IcTv Exclusive


    Seeders : 1      Leechers : 0

Trackers List

Tracker NameLast CheckStatusSeedersLeechers




Torrent File Content (2 files)


Don 2 - HDScam - XviD - 1CD - Team IcTv Exclusive
     Don 2 - HDScam - XviD - 1CD - Team IcTv Exclusive.avi -
697.03 MB

     Join Us For More Quality Stuff-=filmy.pk=-.txt -
2.29 KB



Description



http://www.moviescut.com/wp-content/uploads/2011/07/Don-2.jpg

http://img214.imageshack.us/img214/959/plotbi.png

Having conquered the Asian underworld, Don (Shah Rukh Khan) now has his sights set on European domination. In his way are the bosses of the existing European underworld and all law enforcement agencies. The action shifts from Kuala Lumpur to Berlin as Don must avoid assassination or arrest, whichever comes first, in order for his plan to succeed.
http://img192.imageshack.us/img192/962/castef.png

The one-time police informer sets his sights on the European underworld.

Director: Farhan Akhtar
Writers: Javed Akhtar (characters), Salim Khan (characters), and 1 more credit ยป
Stars: Shah Rukh Khan, Florian Lukas and Om Puri
http://img812.imageshack.us/img812/7479/22735937.png

[url=http://www.imdb.com/title/tt1285241/]Don 2 (2011) - IMDb[/url]
http://img856.imageshack.us/img856/7453/infohr.png

Video
ID : 0
Format : MPEG-4 Visual
Format profile : Advanced [email protected]
Format settings, BVOP : 1
Format settings, QPel : No
Format settings, GMC : No warppoints
Format settings, Matrix : Default (H.263)
Codec ID : XVID
Codec ID/Hint : XviD
Duration : 2h 9mn
Bit rate : 616 Kbps
Width : 608 pixels
Height : 272 pixels
Display aspect ratio : 2.25:1
Frame rate : 25.000 fps
Color space : YUV
Chroma subsampling : 4:2:0
Bit depth : 8 bits
Scan type : Progressive
Compression mode : Lossy
Bits/(Pixel*Frame) : 0.149
Stream size : 572 MiB (82%)
Writing library : XviD 1.2.1 (UTC 2008-12-04)

Audio
ID : 1
Format : MPEG Audio
Format version : Version 1
Format profile : Layer 3
Mode : Joint stereo
Mode extension : MS Stereo
Codec ID : 55
Codec ID/Hint : MP3
Duration : 2h 9mn
Bit rate mode : Constant
Bit rate : 128 Kbps
Channel(s) : 2 channels
Sampling rate : 48.0 KHz
Compression mode : Lossy
Stream size : 119 MiB (17%)
Alignment : Aligned on interleaves
Interleave, duration : 160 ms (4.00 video frames)
Interleave, preload duration : 216 ms
Title : VTS_01_1 Tc0 L2 2ch 48 128 DELAY 0ms
Writing library : LAME3.98r
Encoding settings : -m j -V 4 -q 2 -lowpass 17 -b 128
http://img267.imageshack.us/img267/640/screendta.png

http://www.desidl.com/images/06618392473309300285.png
http://www.desidl.com/images/22713446618342760902.png
http://www.desidl.com/images/83566530082769281648.png
http://www.desidl.com/images/58880436462481093550.png
http://www.desidl.com/images/18085341026409699316.png
http://www.desidl.com/images/20035976067730819360.png
http://www.desidl.com/images/51951177602923582912.png
http://www.desidl.com/images/53238253168959937975.png
http://www.desidl.com/images/11555803663428054674.png

http://img8.imageshack.us/img8/9208/thanksjpg.gif

Related torrents

Torrent NameAddedSizeSeedLeechHealth
1 Year+ - in Movies622.88 MB00
1 Year+ - in Movies694.64 MB26544
Verified torrent
Last Month - in Movies691.27 MB97109
Verified torrent
Last Month - in Movies698.6 MB7611,002
Verified torrent
Last Month - in Movies698.05 MB474195

Comments (0 Comments)




Please login or create a FREE account to post comments

Latest Searches

| coursera french | cory cums of age | no ari | Black Hippy V O E N O | gog gungeon | Why Him 2017 1080p x264 DD5 1 EN Subs | bakery in brooklyn evo | dont ask dont tell | girl utr | leah gotti blacked loves |