Quick Browse
Movies
TV shows
Music
Games
Applications
Anime
Other
Facebook
Advertising

Friends
Torrent Download
Movie4u
1337x.to
Torrent Downloads




Verified torrent Dookudu 2011 1CD DVDSCR x264 AAC-MTR


    Seeders : 0      Leechers : 0
Hash :F34790403465724F1F0490201C4A1E2111C032B6
Added :1 Year+ by jumbotorrentsxVerified torrent uploader in Movies
Size :700.64 MB
Stream :WATCH ONLINE @ Movie4u


Dookudu 2011 1CD DVDSCR x264 AAC-MTR
Free and Fast Download with Usenet 300GB+ free







Trackers List

Tracker NameLast CheckStatusSeedersLeechers




Torrent File Content (8 files)


Dookudu 2011 1CD DVDSCR x264 AAC-MTR
     Dookudu 2011 1CD DVDSCR x264 AAC-MTR.avi -
698.91 MB

    Screenshots
          vlcsnap-2011-10-17-12h45m05s36.png -
521.64 KB

          vlcsnap-2011-10-17-12h45m11s106.png -
470.36 KB

          vlcsnap-2011-10-17-12h45m00s241.png -
419.76 KB

          vlcsnap-2011-10-17-12h45m24s228.png -
352.21 KB

     Dookudu 2011 1CD DVDSCR x264 AAC-MTR.nfo -
1.16 KB

     Torrent downloaded from Limetorrents.com.txt -
48 bytes

     Torrent downloaded from Demonoid.me.txt -
46 bytes



Description



http://postimg.com/50000/photo-49112.jpg




http://padamhosting.com/out.php/i118868_vlcsnap2011101712h45m00s241.png




http://padamhosting.com/out.php/i118867_vlcsnap2011101712h45m05s36.png




http://padamhosting.com/out.php/i118866_vlcsnap2011101712h45m11s106.png




http://padamhosting.com/out.php/i118865_vlcsnap2011101712h45m24s228.png




[code]
Format : AVI
Format/Info : Audio Video Interleave
Format profile : OpenDML
Overall bit rate : 1 611 Kbps
Writing application : VirtualDubMod 1.5.10.2 (build 2542/release)
Writing library : VirtualDubMod build 2542/release


Video
ID : 0
Format : MPEG-4 Visual
Format profile : [email protected]
Format settings, BVOP : Yes
Format settings, QPel : No
Format settings, GMC : No warppoints
Format settings, Matrix : Default (H.263)
Codec ID : XVID
Codec ID/Hint : XviD
Duration : 1h 59mn
Bit rate : 1 157 Kbps
Width : 704 pixels
Height : 304 pixels
Display aspect ratio : 2.35:1
Frame rate : 25.000 fps
Resolution : 24 bits
Colorimetry : 4:2:0
Scan type : Progressive
Bits/(Pixel*Frame) : 0.216
Stream size : 991 MiB (72%)
Writing library : XviD 1.3.0.dev55

Audio
ID : 1
Format : AC-3
Format/Info : Audio Coding 3
Codec ID : 2000
Duration : 1h 59mn
Bit rate mode : Constant
Bit rate : 448 Kbps
Channel(s) : 6 channels
Channel positions : Front: L C R, Surround: L R, LFE
Sampling rate : 48.0 KHz
Stream size : 384 MiB (28%)
Alignment : Aligned on interleaves
Interleave, duration : 64 ms (1.60 video frames)
Interleave, preload duration : 192 ms
[/code]

Related torrents

Torrent NameAddedSizeSeedLeechHealth
Verified torrent
1 Year+ - in Movies700.15 MB00
1 Year+ - in Movies702.46 MB206
1 Year+ - in Movies706.95 MB120
1 Year+ - in Movies713.13 MB2726
1 Year+ - in Movies705.59 MB00

Comments (0 Comments)




Please login or create a FREE account to post comments

Latest Searches

| james arthur odds and ends rare 2012 vbr | joomla 3 dummies | honey demon possession | Desperate Housewives S08E13 HDTV VOSTFR Gillop | WildOnCam 16 02 16 Rachele Richey | E MY IMMORTAL | anal teen 2016 720p | Top 10 Dunks of the Week | The Musketeers Season 1 S01 | anal teen 2016 mofos |