Quick Browse
Movies
TV shows
Music
Games
Applications
Anime
Other
Facebook
Advertising

Friends
Torrent Download
Movie4u
1337x.to
Torrent Downloads




Verified torrent Dr Seuss The Lorax 2012 CAM READNFO Xvid-26k


    Seeders : 0      Leechers : 0
Hash :1002BC27768CC5D548FCB70055CE11913F5DF420
Added :1 Year+ by memory100Verified torrent uploader in Movies
Size :1.37 GB
Stream :WATCH ONLINE @ Movie4u


Dr Seuss The Lorax 2012 CAM READNFO Xvid-26k
Free and Fast Download with Usenet 300GB+ free







Trackers List

Tracker NameLast CheckStatusSeedersLeechers




Torrent File Content (13 files)


Dr. Seuss The Lorax 2012 CAM READNFO Xvid-26k
     1.png -
417.88 KB

     2.png -
400.04 KB

     26k nfo.nfo -
3.82 KB

     3.png -
345.51 KB

     4.png -
456.36 KB

     Dr. Seuss The Lorax 2012 CAM READNFO Xvid-26k.avi -
1.37 GB

     Dr. Seuss The Lorax 2012 CAM READNFO Xvid-26k.jpg -
146.52 KB

     HDSceneRG.txt -
115 bytes

     Torrent downloaded from Demonoid.me.txt -
46 bytes

     Torrent downloaded from rarbg.com.txt.txt -
0 bytes

     YouTube Latest Releases And Archive.txt -
76 bytes

     att-networks.com.txt -
39 bytes

     sceneunderground.org.txt -
77 bytes



Description



http://img254.imageshack.us/img254/2505/lorax.jpg

[code]

Dr. Seuss The Lorax 2012 CAM READNFO Xvid-26k

http://www.imdb.com/title/tt1482459/

Plot:
A 12-year-old boy searches for the one thing that will enable him to win the affection of the
girl of his dreams. To find it he must discover the story of the Lorax, the grumpy yet charming
creature who fights to protect his world.

Sources - VIDEO:LUM1X...Thanks :P
AUIDO: INSPiRAL NEW AUDIO.....Thanks :P




Format : AVI
Format/Info : Audio Video Interleave
File size : 1.37 GiB
Duration : 1h 18mn
Overall bit rate : 2 492 Kbps
Writing application : VirtualDubMod 1.5.10.2 (build 2540/release)
Writing library : VirtualDub build 32839/release

Video
ID : 0
Format : MPEG-4 Visual
Format profile : Advanced [email protected]
Format settings, BVOP : 2
Format settings, QPel : No
Format settings, GMC : No warppoints
Format settings, Matrix : Default (H.263)
Muxing mode : Packed bitstream
Codec ID : XVID
Codec ID/Hint : XviD
Duration : 1h 18mn
Bit rate : 2 354 Kbps
Width : 720 pixels
Height : 344 pixels
Display aspect ratio : 2.093
Frame rate : 25.000 fps
Color space : YUV
Chroma subsampling : 4:2:0
Bit depth : 8 bits
Scan type : Progressive
Compression mode : Lossy
Bits/(Pixel*Frame) : 0.380
Stream size : 1.29 GiB (94%)
Writing library : XviD 1.2.1 (UTC 2008-12-04)

Audio
ID : 1
Format : MPEG Audio
Format version : Version 1
Format profile : Layer 3
Mode : Joint stereo
Mode extension : MS Stereo
Codec ID : 55
Codec ID/Hint : MP3
Duration : 1h 18mn
Bit rate mode : Constant
Bit rate : 128 Kbps
Channel(s) : 2 channels
Sampling rate : 44.1 KHz
Compression mode : Lossy
Stream size : 72.1 MiB (5%)
Alignment : Split accross interleaves
Interleave, duration : 40 ms (1.00 video frame)



Notes -

Source was nice just degrained a lil, denoised and gave the colors some life back..
then just muxed INSPiRALS NEW AUDIO to my encode... enjoy

[/code]

Screens:
http://i.imgur.com/vwxZD.png

http://i.imgur.com/OLtCx.png

http://img7.imageshack.us/img7/9197/drseussthelorax2012camr.jpg

http://img826.imageshack.us/img826/4549/97045370.png

http://img846.imageshack.us/img846/3075/81280145.png


Alternative screens:
http://imgdepot.org/show/20120313/2/137879_3.png
http://www.imageporter.com/wdk5fc90covd/4.png
http://dippic.com/wbicrac316ys
http://www.hotimg.com/image/AMBB853

Greetz:
Xtreme Encode|FYA|ILLUMANTI|CM8|RX|VISI​ON|HDSCENE|xTriLL|DTRG|CRYS|REMIX​HD|BIDA|RX|REFILL|INSPiRAL|SIC|
|HO​PE|Anonymous|GooN|miRaGe
To all the people who have helped me you know who you are

Anything to offer email us @: [email protected]


http://img851.imageshack.us/img851/5503/26ks.jpg

Thank you smallz for banner!

Related torrents

Torrent NameAddedSizeSeedLeechHealth
1 Year+ - in Movies748.64 MB00
1 Year+ - in Movies624.03 MB00
1 Year+ - in Movies637.65 MB01
1 Year+ - in Movies628 MB00
1 Year+ - in Movies1.17 GB00

Comments (0 Comments)




Please login or create a FREE account to post comments

Latest Searches

| gumroad tim | fairy tail 229 eng | dont need another hero | milky down the river | reggaeton mix rnb | Krod Mandoon 1 | Lea Lexis Missy Martinez | natural world s30e04 | From Holly With Love | C E Wilson |