Quick Browse
Movies
TV shows
Music
Games
Applications
Anime
Other
Facebook
Friends
Torrent Download
Free Movies
1337x.to
Torrent Downloads

Verified torrent Dragon Hunters 2008 BRRip 720p XviD AC3-MXMG


    Seeders : 9      Leechers : 132
Hash :212BEB254BECFB33FECBA43026097D7C45D30196
Added :1 Year+ by MXMGVerified torrent uploader in Movies
Size :1.49 GB
Stream :Watch Full Movies Online @ Movie4u
Share :


Dragon Hunters 2008 BRRip 720p XviD AC3-MXMG
Anonymous and Direct Download 300GB+ free







Warning! Do not Download Torrents Without a VPN!
Your IP Address is .   And Location is
Your Internet Provider and Government can track your torrent Activity!  Hide your IP ADDRESS with a VPN!
We Strongly Recommend Using SpyOFF Torrent VPN to Anonymize your Torrenting. It's FREE For 15 Days!

Note :

Please Update (Trackers Info) Before Downloading Torrents to See Updated Seeders And Leechers for Batter Download Speed.

Trackers List

Tracker NameLast CheckStatusSeedersLeechers




Torrent File Content (14 files)


Dragon Hunters 2008 BRRip 720p XviD AC3-MXMG
     Dragon Hunters.avi -
1.48 GB

     Screenshot_ (4).png -
1.47 MB

     Screenshot_ (6).png -
1.33 MB

     Screenshot_ (3).png -
1.08 MB

     Screenshot_ (2).png -
847.45 KB

     Screenshot_ (5).png -
820.02 KB

     Screenshot_ (1).png -
809.41 KB

     Dragon Hunters[subs]English.srt -
65.49 KB

     Dragon Hunters[subs]Spanish.srt -
54.11 KB

     Dragon Hunters[subs]Romanian.srt -
47.71 KB

     Dragon Hunters[subs]Portugese.srt -
46.78 KB

     MXMG.nfo -
2 KB

     Torrent downloaded from Demonoid.me.txt -
46 bytes

     Torrent downloaded from Silvertorrents.me.txt -
41 bytes



Description



http://img16.imageshack.us/img16/7341/blankoy.png





http://img251.imageshack.us/img251/4286/mxmg.jpg


[quote]
Format : AVI
Format/Info : Audio Video Interleave
File size : 1.48 GiB
Duration : 1h 21mn
Overall bit rate : 2 591 Kbps
Writing application : VirtualDubMod 1.5.10.3 | www.virtualdub-fr.org || (build 2550/release)
Writing library : VirtualDubMod build 2550/release

Video
ID : 0
Format : MPEG-4 Visual
Format profile : Advanced [email protected]
Format settings, BVOP : 1
Format settings, QPel : No
Format settings, GMC : No warppoints
Format settings, Matrix : Default (H.263)
Codec ID : XVID
Codec ID/Hint : XviD
Duration : 1h 21mn
Bit rate : 2 198 Kbps
Width : 1 280 pixels
Height : 720 pixels
Display aspect ratio : 16:9
Frame rate : 23.976 fps
Color space : YUV
Chroma subsampling : 4:2:0
Bit depth : 8 bits
Scan type : Progressive
Compression mode : Lossy
Bits/(Pixel*Frame) : 0.099
Stream size : 1.26 GiB (85%)
Writing library : XviD 63

Audio
ID : 1
Format : AC-3
Format/Info : Audio Coding 3
Mode extension : CM (complete main)
Codec ID : 2000
Duration : 1h 21mn
Bit rate mode : Constant
Bit rate : 384 Kbps
Channel(s) : 6 channels
Channel positions : Front: L C R, Side: L R, LFE
Sampling rate : 48.0 KHz
Bit depth : 16 bits
Compression mode : Lossy
Stream size : 225 MiB (15%)
Alignment : Split accross interleaves
Interleave, duration : 42 ms (1.00 video frame)
Interleave, preload duration : 500 ms


[/quote]


Screens :
http://img94.imageshack.us/img94/4438/screenshot6qgd.png


http://img148.imageshack.us/img148/7533/screenshot1ke.png


http://img232.imageshack.us/img232/1614/screenshot2yo.png


http://img822.imageshack.us/img822/641/screenshot3kv.png


http://img35.imageshack.us/img35/4549/screenshot5ky.png


http://img694.imageshack.us/img694/4536/screenshot4vc.png





[quote]
# Latest codecs used to deliver Top Quality Releases
# Seeded at high speeds to grant super Download speeds
# All DivX/XviD Players compatible and also PS3, Popcorn Hour, WD & XBOX 360*
[/quote]

[code]
Seedboxes provided by http://www.chociz.com/
A seedbox is a private dedicated server used for the uploading and downloading of digital files.
Speed - You can sit back, relax and watch in amazement at how fast the torrents finish.
Secure and Safe - With a seedbox, you don’t even need to use a BitTorrent client on your home computer!
Use Private Trackers - You can register @ Private Trackers and seed like Hell!

Get a Cheap Seedbox choosing for your taste - [url]http://www.chociz.com/whmcs/cart.php[/url]
[/code]


Related torrents

Torrent NameAddedSizeSeedLeechHealth
1 Year+ - in Movies728.64 MB210
1 Year+ - in Movies921.41 MB00
1 Year+ - in Movies1.91 GB212
1 Year+ - in Movies2.2 GB00
1 Year+ - in Movies2.84 GB27102

Comments (0 Comments)




Please login or create a FREE account to post comments

Latest Searches

| 2160p hevc x265 narcos | MakeHimCuckold 13 05 24 Jenny | Lucky Boy | Mandy Muse Valentina | Red Riding Hood XXX Parody | chi legge | car wash pov | judy shemale | Love OZ | RealityKings Tiffany Tatum |