Quick Browse
Movies
TV shows
Music
Games
Applications
Anime
Other
Facebook
Advertising

Friends
Torrent Download
Movie4u
1337x.to
Torrent Downloads




Verified torrent Dream House 2011 CAM V2 XviD - ILLUMINATI


    Seeders : 494      Leechers : 394
Hash :BBE717816DB1F5251A6F54B0EFC98DD52A508C9B
Added :1 Year+ by memory100Verified torrent uploader in Movies
Size :1.23 GB
Stream :WATCH ONLINE @ Movie4u


Dream House 2011 CAM V2 XviD - ILLUMINATI
Free and Fast Download with Usenet 300GB+ free







Trackers List

Tracker NameLast CheckStatusSeedersLeechers




Torrent File Content (9 files)


Dream House 2011 CAM V2 XviD - ILLUMINATI [NO RAR]
     Dream House 2011 CAM V2 XviD - ILLUMINATI.avi -
1.2 GB

     HDSceneRG.txt -
115 bytes

     NW RG.nfo -
12.96 KB

     Torrent downloaded from Demonoid.me.txt -
46 bytes

     Torrent downloaded from Suprnova.me.txt -
42 bytes

     att-networks.com.txt -
39 bytes

     northernwarriors.net.txt -
135 bytes

     sample.avi -
31.39 MB

     sceneunderground.org.txt -
77 bytes



Description



http://img847.imageshack.us/img847/2720/postermo.jpg

[code]
Dream House 2011 CAM V2 XviD - ILLUMINATI

Video
ID : 0
Format : MPEG-4 Visual
Format profile : Advanced [email protected]
Format settings, BVOP : 2
Format settings, QPel : No
Format settings, GMC : No warppoints
Format settings, Matrix : Default (H.263)
Muxing mode : Packed bitstream
Codec ID : XVID
Codec ID/Hint : XviD
Duration : 1h 21mn
Bit rate : 1 957 Kbps
Width : 720 pixels
Height : 304 pixels
Display aspect ratio : 2.35:1
Frame rate : 25.000 fps
Color space : YUV
Chroma subsampling : 4:2:0
Bit depth : 8 bits
Scan type : Progressive
Compression mode : Lossy
Bits/(Pixel*Frame) : 0.358
Stream size : 1.12 GiB (93%)
Writing library : XviD 64

Audio
ID : 1
Format : MPEG Audio
Format version : Version 1
Format profile : Layer 3
Mode : Joint stereo
Mode extension : MS Stereo
Codec ID : 55
Codec ID/Hint : MP3
Duration : 1h 21mn
Bit rate mode : Constant
Bit rate : 128 Kbps
Channel(s) : 2 channels
Sampling rate : 44.1 KHz
Compression mode : Lossy
Stream size : 75.0 MiB (6%)
Alignment : Split accross interleaves
Interleave, duration : 40 ms (1.00 video frame)

Same video as V1 but new cam audio

Plot:
Soon after moving into their seemingly idyllic new home, a family learns of a brutal crime committed against former residents of the dwelling.
[/code]
Screens:
http://img594.imageshack.us/img594/2550/60519285.png

http://img193.imageshack.us/img193/3236/73803041.png

http://img444.imageshack.us/img444/8919/85160311.png

http://img90.imageshack.us/img90/3522/34655210.png

http://img831.imageshack.us/img831/236/96018490.png

http://img706.imageshack.us/img706/392/73644081.png

Related torrents

Torrent NameAddedSizeSeedLeechHealth
1 Year+ - in Movies1.23 GB11
1 Year+ - in Movies1.23 GB05
1 Year+ - in Movies1.23 GB1102
1 Year+ - in Movies1.23 GB13
1 Good
1 Year+ - in Movies1.21 GB3407

Comments (0 Comments)




Please login or create a FREE account to post comments

Latest Searches

| bbc who dares wins s08e08 | She wild n | 18 porn pdf | billboard top 100 pop dance rock | gi joe renegades | Cleo hunter x | once upon a time S05E10 subs | R B Blues | innovation 2004 | final destination 5 2011 3d dual |