Quick Browse
Movies
TV shows
Music
Games
Applications
Anime
Other
Facebook
Advertising

Friends
Torrent Download
Movie4u
1337x.to
Torrent Downloads




Dream House 2011 CAM V2 XviD-ILLUMINATI


    Seeders : 1      Leechers : 3
Hash :C4442BC251AF5CC4A77A151996EAA522C6549D17
Added :1 Year+ by jumbotorrentsxVerified torrent uploader in Movies
Size :1.23 GB
Stream :WATCH ONLINE @ Movie4u


Dream House 2011 CAM V2 XviD-ILLUMINATI
Free and Fast Download with Usenet 300GB+ free







Trackers List

Tracker NameLast CheckStatusSeedersLeechers




Torrent File Content (9 files)


Dream House 2011 CAM V2 XviD-ILLUMINATI
     Dream House 2011 CAM V2 XviD-ILLUMINATI.avi -
1.23 GB

     Dream House 2011 CAM V2 XviD-ILLUMINATI.nfo -
1.27 KB

    Screenshots
          34655210.png -
158.8 KB

          60519285.png -
117.89 KB

          73644081.png -
159.51 KB

          73803041.png -
188.54 KB

          85160311.png -
159.85 KB

          96018490.png -
230.23 KB

     Torrent downloaded from Demonoid.me.txt -
46 bytes



Description



http://www.upcoming-movies.com/ashx/WFTCRMImageFetch.aspx?DType=ArticleImage%26ImageType=ArticleImg%26PhotoName=55a257af-75fb-48cc-921a-226cb9d5431b.jpg


http://img594.imageshack.us/img594/2550/60519285.png


http://img193.imageshack.us/img193/3236/73803041.png


http://img444.imageshack.us/img444/8919/85160311.png


http://img90.imageshack.us/img90/3522/34655210.png


http://img831.imageshack.us/img831/236/96018490.png


[code]
Dream House 2011 CAM V2 XviD - ILLUMINATI

Video
ID : 0
Format : MPEG-4 Visual
Format profile : Advanced [email protected]
Format settings, BVOP : 2
Format settings, QPel : No
Format settings, GMC : No warppoints
Format settings, Matrix : Default (H.263)
Muxing mode : Packed bitstream
Codec ID : XVID
Codec ID/Hint : XviD
Duration : 1h 21mn
Bit rate : 1 957 Kbps
Width : 720 pixels
Height : 304 pixels
Display aspect ratio : 2.35:1
Frame rate : 25.000 fps
Color space : YUV
Chroma subsampling : 4:2:0
Bit depth : 8 bits
Scan type : Progressive
Compression mode : Lossy
Bits/(Pixel*Frame) : 0.358
Stream size : 1.12 GiB (93%)
Writing library : XviD 64

Audio
ID : 1
Format : MPEG Audio
Format version : Version 1
Format profile : Layer 3
Mode : Joint stereo
Mode extension : MS Stereo
Codec ID : 55
Codec ID/Hint : MP3
Duration : 1h 21mn
Bit rate mode : Constant
Bit rate : 128 Kbps
Channel(s) : 2 channels
Sampling rate : 44.1 KHz
Compression mode : Lossy
Stream size : 75.0 MiB (6%)
Alignment : Split accross interleaves
Interleave, duration : 40 ms (1.00 video frame)

Same video as V1 but new cam audio

Plot:
Soon after moving into their seemingly idyllic new home, a family learns of a brutal crime committed against former residents of the dwelling.
[/code]

Related torrents

Torrent NameAddedSizeSeedLeechHealth
1 Year+ - in Movies1.23 GB11
1 Year+ - in Movies1.23 GB05
1 Year+ - in Movies1.23 GB1102
Verified torrent
1 Year+ - in Movies1.23 GB494394
1 Good
1 Year+ - in Movies1.21 GB3407

Comments (0 Comments)




Please login or create a FREE account to post comments

Latest Searches

| prison break prison break season 1 episode 3 | roblox R | nosteam walking | Fatboy Slim The Greatest Hits Remixed | Panic room rarbg | 8 1969 | and the an | kl love | Legend of Ravaging Dynasties 2016 | Allah B |