Quick Browse
Movies
TV shows
Music
Games
Applications
Anime
Other
Facebook
Advertising

Friends
Torrent Download
Movie4u
1337x.to
Torrent Downloads




Verified torrent Drumline 2002 BRRip H264 AAC-Rx


    Seeders : 0      Leechers : 0
Hash :12B97EBC1F1464676ABA302DA1C0A3DE7DA84D32
Added :1 Year+ by SAHIBGREWVerified torrent uploader in Movies
Size :1.82 GB
Stream :WATCH ONLINE @ Movie4u


Drumline 2002 BRRip H264 AAC-Rx
Free and Fast Download with Usenet 300GB+ free







Trackers List

Tracker NameLast CheckStatusSeedersLeechers




Torrent File Content (8 files)


Drumline 2002 BRRip H264 AAC-Rx(Phoenix-RG)
    Cover
          Drumline.jpg -
69.1 KB

    Sites, Info, Tracker
          INFO.txt -
1.49 KB

          Torrent downloaded from AhaShare.com.txt -
59 bytes

          Torrent downloaded from thepiratebay.org.txt -
48 bytes

          Torrent downloaded from Demonoid.com.txt -
47 bytes

          tracked_by_h33t_com.txt -
23 bytes

    Sub
          Drumline 2002 BRRip H264 AAC-Rx(Phoenix-RG).srt -
96.82 KB

     Drumline 2002 BRRip H264 AAC-Rx(Phoenix-RG).mp4 -
1.82 GB



Description



http://lookpic.com/d2/i2/955/7qoWdvGV.png



http://lookpic.com/d2/i2/2284/MhDm2eaj.png


A fish-out-of-water comedy about a talented street drummer from Harlem who enrolls in a
Southern university, expecting to lead its marching band's drumline to victory. He initially
flounders in his new world, before realizing that it takes more than talent to reach the top.............



http://lookpic.com/d2/i2/3630/X7KXI0EY.png



Drumline 2002 BRRip H264 AAC-Rx(Phoenix-RG).mp4
Format : MPEG-4
Format profile : Base Media / Version 2
Codec ID : mp42
File size : 1.82 GiB
Duration : 2h 2mn
Overall bit rate : 2 123 Kbps


Video #1
Format : AVC
Format/Info : Advanced Video Codec
Format profile : [email protected]
Format settings, CABAC : Yes
Format settings, ReFrames : 3 frames
Codec ID : avc1
Codec ID/Info : Advanced Video Coding
Duration : 2h 2mn
Bit rate mode : Variable
Bit rate : 1 800 Kbps
Width : 1 280 pixels
Height : 544 pixels
Display aspect ratio : 2.35
Frame rate mode : Variable
Frame rate : 23.976 fps
Minimum frame rate : 23.810 fps
Maximum frame rate : 24.390 fps
Resolution : 24 bits
Colorimetry : 4:2:0
Scan type : Progressive
Bits/(Pixel*Frame) : 0.108
Stream size : 1.54 GiB (85%)
Writing library : x264 core 65

Audio #2
Format : AAC
Format/Info : Advanced Audio Codec
Format version : Version 4
Format profile : LC
Format settings, SBR : No
Codec ID : 40
Duration : 2h 2mn
Bit rate mode : Variable
Bit rate : 320 Kbps
Maximum bit rate : 482 Kbps
Channel(s) : 6 channels
Channel positions : Front: L C R, Rear: L R, LFE
Sampling rate : 48.0 KHz
Resolution : 16 bits
Stream size : 280 MiB (15%)



http://img94.imageshack.us/img94/7057/imdb3.png


http://www.imdb.com/title/tt0303933




http://lookpic.com/d2/i2/979/hkdQUuHV.png



http://lookpic.com/d2/i2/1628/ZPh6ruV.jpeg

http://lookpic.com/d2/i2/3147/xigkDoE.jpeg



Related torrents

Torrent NameAddedSizeSeedLeechHealth
1 Year+ - in Movies1.42 GB337
1 Year+ - in Movies1.62 GB246
1 Year+ - in Movies1.44 GB00
Verified torrent
1 Year+ - in Movies1.43 GB222
Verified torrent
1 Year+ - in Movies1.44 GB3021

Comments (0 Comments)




Please login or create a FREE account to post comments

Latest Searches

| billboard 10 2014 | ask this old house 4 7 | t mills i fucked a | Sweet Foxy Aidra Fox Darcie Dolce | MomsInControl Alena Croft Kristen Scott Doing The Dirty Work | supervolcano 2005 part1 dvdrip swesub xvid ac3 mr keff | 18 hollywood dual | the cleveland show series | day n night remix kid cudi | a real live dolly |