Quick Browse
Movies
TV shows
Music
Games
Applications
Anime
Other
Facebook
Advertising

Friends
Torrent Download
Movie4u
1337x.to
Torrent Downloads




Verified torrent Due Uomini E Mezzo S08e10-12 [Mux - XviD - Italian Mp3] WEBrip by DarkSideMux (mircrew)


    Seeders : 1      Leechers : 1

Trackers List

Tracker NameLast CheckStatusSeedersLeechers




Torrent File Content (3 files)


Due.Uomini.E.Mezzo.8x10-12.ITA.LD.WEBRip.XviD-DarkSideMux
     Due.Uomini.E.Mezzo.8x10.Las.Vegas.ciuca.ciuca.iTALiAN.DLMux.XviD-DarkSideMux.avi -
250.04 MB

     Due.Uomini.E.Mezzo.8x11.Questione.di.soldi.iTALiAN.DLMux.XviD-DarkSideMux.avi -
250.09 MB

     Due.Uomini.E.Mezzo.8x12.Dadini.al.cioccolato.iTALiAN.DLMux.XviD-DarkSideMux.avi -
250.05 MB



Description



Due Uomini E Mezzo S08e10-12 [Mux - XviD - Italian Mp3] WEBrip by DarkSideMux (mircrew)


[color=#990000]
http://img687.imageshack.us/img687/7886/nuovologodsm.jpg




mux by DarkSideMux


Due Uomini e Mezzo
Stagione 8 Epi 10-12

Titolo originale: Two and a Half Men
Paese: Stati Uniti d'America
Anno: 2003....... - in produzione
Formato: serie TV
Genere: sitcom

Puntate/episodi: 24
Durata: 20 min (episodio)
Lingua originale: inglese

Crediti
Ideatore: Chuck Lorre & Lee Aronsohn

Interpreti e personaggi

* Charlie Sheen: Charles Francis "Charlie" Harper
* Jon Cryer: Alan Jerome Harper
* Angus T. Jones: Jacob David "Jake" Harper
* Conchata Ferrell: Berta
* Holland Taylor: Evelyn Harper
* Marin Hinkle: Judith Melnick

Doppiatori e personaggi

* Massimo Rossi: Charles Francis "Charlie" Harper
* Franco Mannella: Alan Jerome Harper
* Jacopo Cinque: Jacob David "Jake" Harper (s. 1-2)
* Alessio Nissolino: Jacob David "Jake" Harper (s. 3+)
* Cristina Piras: Berta
* Angiolina Quinterno: Evelyn Harper (s. 1-2)
* Camen Onorati: Evelyn Harper (s. 3+)
* Roberta Pellini: Judith Melnick

Produttore: Chuck Lorre Productions, The Tannenbaum Company & Warner Bros. Television

[color=green]Episodio 1 : Panna Montata
Three Girls and a Guy Named Bud[/color]

Episodio 2 : Cento Dollari Al Mese
A Bottle of Wine and a Jackhammer

Episodio 3 : L'allievo Supera Il Maestro
A Pudding-Filled Cactus

Episodio 4 : Di Nuovo Soli
Hookers, Hookers, Hookers
Gli ospiti indesiderati a casa di Charlie aumentano dopo che Alan da' fuoco all'abitazione di Lyndsey.

Episodio 5 : Giochi Di Ruolo
The Immortal Mr. Billy Joel

Episodio 6 : La Bacchetta Magica
Twanging Your Magic Clanger

Episodio 7 : Il Passato E' Passato
The Crazy Bitch Gazette

Episodio 8 : Il Compleanno Di Evelyn
Springtime on a Stick
Charlie ed Alan cercano di spingere la madre ad uscire con Russell.

Episodio 9 : Esmeralda Governante Tuttofare
A Good Time In Central Africa

Episodio 10 : Las Vegas Ciuca Ciuca!
Ow, Ow, Don't Stop

Episodio 11 : Questione Di Soldi
Dead from the Waist Down

Episodio 12 : Dadini Al Cioccolato
Chocolate Diddlers or My Puppy's Dead

Episodio 13 : Skunk, Dog, Crap And Ketchup
Skunk, Dog, Crap and Ketchup

http://img406.imageshack.us/img406/4740/trama.gif


La sitcom inizia dal trasloco di Alan (Jon Cryer) e suo figlio Jake (Angus T. Jones) a casa di Charlie (Charlie Sheen), fratello di Alan, in seguito alla separazione di quest'ultimo da sua

moglie Judith (Marin Hinkle).



Le storie narrate si incentrano sulle situazioni spesso comiche nate dalle diverse abitudini e stili di vita di Charlie, scapolo, di professione compositore musicale per jingle

pubblicitari, donnaiolo di successo, viziato e dalla vita agiata, e di suo fratello Alan, separato e con figlio al seguito, di professione chiropratico, molto più tranquillo, ma

maniacalmente preciso. Il loro rapporto è anche scombussolato dalle incursioni della madre dei due, Evelyn (Holland Taylor), ricca agente immobiliare e donna superficiale con la quale i due

figli hanno un rapporto perennemente conflittuale e dalla governante Berta, considerata ormai come una di famiglia, ma con un fare molto rozzo e mascolino.

http://img406.imageshack.us/img406/3893/datifile.gif


General
Complete name : Due.Uomini.E.Mezzo.8x01.Panna.montata.iTALiAN.DLMux.XviD-DarkSideMux.avi
Format : AVI
Format/Info : Audio Video Interleave
File size : 250 MiB
Duration : 20mn 39s
Overall bit rate : 1 693 Kbps
Writing application : VirtualDubMod 1.5.10.2 (build 2540/release)
Writing library : VirtualDubMod build 2540/release

Video
ID : 0
Format : MPEG-4 Visual
Format profile : Advanced [email protected]
Format settings, BVOP : Yes
Format settings, QPel : No
Format settings, GMC : No warppoints
Format settings, Matrix : Custom
Codec ID : XVID
Codec ID/Hint : XviD
Duration : 20mn 39s
Bit rate : 1 551 Kbps
Width : 624 pixels
Height : 352 pixels
Display aspect ratio : 16:9
Frame rate : 25.000 fps
Color space : YUV
Chroma subsampling : 4:2:0
Bit depth : 8 bits
Scan type : Progressive
Bits/(Pixel*Frame) : 0.282
Stream size : 229 MiB (92%)
Writing library : XviD 1.2.1 (UTC 2008-12-04)

Audio
ID : 1
Format : MPEG Audio
Format version : Version 1
Format profile : Layer 3
Mode : Joint stereo
Mode extension : MS Stereo
Codec ID : 55
Codec ID/Hint : MP3
Duration : 20mn 39s
Bit rate mode : Variable
Bit rate : 129 Kbps
Minimum bit rate : 32.0 Kbps
Channel(s) : 2 channels
Sampling rate : 48.0 KHz
Stream size : 19.0 MiB (8%)
Alignment : Aligned on interleaves
Interleave, duration : 24 ms (0.60 video frame)
Interleave, preload duration : 480 ms
Writing library : LAME3.99r
Encoding settings : -m j -V 4 -q 0 -lowpass 17.5 --vbr-new -b 32


http://img216.imageshack.us/img216/786/screenshotq.gif


http://i752.photobucket.com/albums/xx170/robbyrs/vlcsnap-2012-12-15-12h28m58s109.jpg


http://i752.photobucket.com/albums/xx170/robbyrs/vlcsnap-2012-12-15-12h29m08s216.jpg


http://i752.photobucket.com/albums/xx170/robbyrs/vlcsnap-2012-12-15-12h29m17s51.jpg





[/color]

Related torrents

Torrent NameAddedSizeSeedLeechHealth
Verified torrent
1 Year+ - in TV shows1000.26 MB02
Verified torrent
1 Year+ - in TV shows1000.12 MB557
Verified torrent
1 Year+ - in TV shows750.26 MB10
1 Year+ - in Movies667.22 MB12
1 Year+ - in Movies647.77 MB10

Comments (0 Comments)




Please login or create a FREE account to post comments

Latest Searches

| clair de lune debussy piano | 2016 ita civil war | johnny yuma theme song | Tove Lo Queen Of The Clouds rar | sunshine roy ayers | Yarina Play For Me | House Of Cards S01 Complete Season 1 BluRay 720p | flow live | Departures Season 2 2009 DVDRip MKV H 264 | wallpaper 18 |