Quick Browse
Movies
TV shows
Music
Games
Applications
Anime
Other

Donate and Support

Friends
Torrents.me
Torrent Download
Free Movies
1337x
RARBG
Torrent Downloads

Verified torrent ELECTRONYK PODCAST Hindi EPISODE 4 ( RUNDOWN - PART 1 & 2 ) 2010 [Pr!T3sH]


    Seeders : 1      Leechers : 1
Hash :29E968032F49AEF7667D5501C3332E002F62CDF9
Added :1 Year+ by mastitorrentsVerified torrent uploader in Music - Music
Size :64.57 MB
Stream :Watch Full Movies Online @ Movie4u
Share :








Warning! Do not Download Torrents Without a VPN!
Your IP Address is .   And Location is
Your Internet Provider and Government can track your torrent Activity!  Hide your IP ADDRESS with a VPN!
We Strongly Recommend Using SpyOFF Torrent VPN to Anonymize your Torrenting. It's FREE For 15 Days!

Note :

Please Update (Trackers Info) Before Downloading Torrents to See Updated Seeders And Leechers for Batter Download Speed.

Trackers List

Tracker NameLast CheckStatusSeedersLeechers




Torrent File Content (2 files)


[TEAM DUS] ELECTRONYK PODCAST - EPISODE 4 ( RUNDOWN - PART 1 & 2 ) - 2010 [Pr!T3sH]
     ELECTRONYK PODCAST - EPISODE 4 ( RUNDOWN - PART 1 ) [Pr!T3sH].mp3 -
34.78 MB

     ELECTRONYK PODCAST - EPISODE 4 ( RUNDOWN - PART 2 ) [Pr!T3sH].mp3 -
29.79 MB



Description



[color=blue][font=Georgia]!~! MEDIA INFO !~!

Part - 1

General
Complete name : ELECTRONYK PODCAST - EPISODE 4 ( RUNDOWN - PART 1 ) [Pr!T3sH].mp3
Format : MPEG Audio
File size : 34.8 MiB
Duration : 15mn 11s
Overall bit rate : 320 Kbps
Album : [TEAM DUS] ELECTRONYK PODCAST - EPISODE 4 ( RUNDOWN - PART 1 & 2 ) - 2010 [Pr!T3sH]
Track name : EPISODE 4 ( RUNDOWN - PART 1 ) [Pr!T3sH]
Performer : Dj Nyk [Pr!T3sH]
Accompaniment : Dj Nyk [Pr!T3sH]
Recorded date : 2010
Writing library : LAME3.97

Audio
Format : MPEG Audio
Format version : Version 1
Format profile : Layer 3
Mode : Joint stereo
Mode extension : MS Stereo
Duration : 15mn 11s
Bit rate mode : Constant
Bit rate : 320 Kbps
Channel(s) : 2 channels
Sampling rate : 48.0 KHz
Stream size : 34.8 MiB (100%)
Writing library : LAME3.97

Part - 2

General
Complete name : ELECTRONYK PODCAST - EPISODE 4 ( RUNDOWN - PART 2 ) [Pr!T3sH].mp3
Format : MPEG Audio
File size : 29.8 MiB
Duration : 13mn 0s
Overall bit rate : 320 Kbps
Album : [TEAM DUS] ELECTRONYK PODCAST - EPISODE 4 ( RUNDOWN - PART 1 & 2 ) - 2010 [Pr!T3sH]
Track name : EPISODE 4 ( RUNDOWN - PART 2 ) [Pr!T3sH]
Performer : Dj Nyk [Pr!T3sH]
Accompaniment : Dj Nyk [Pr!T3sH]
Recorded date : 2010
Writing library : LAME3.97

Audio
Format : MPEG Audio
Format version : Version 1
Format profile : Layer 3
Mode : Joint stereo
Mode extension : MS Stereo
Duration : 13mn 0s
Bit rate mode : Constant
Bit rate : 320 Kbps
Channel(s) : 2 channels
Sampling rate : 48.0 KHz
Stream size : 29.8 MiB (100%)
Writing library : LAME3.97
[/font][/color]


[color=red][font=Georgia]ElectroNYK Podcast Episode 4 - RUNDOWN PART - 1

1. Dearam On (Protoculture Remix) - Jason van Wyk [Pr!T3sH]
2. Some Chords (Original Mix) - Deadmau5 [Pr!T3sH]
3. Munni Badnam (Dabbangg)- Tribal Mix (Dj Nyk ft. Dj Harsh) [Pr!T3sH]
4. Gal Mitthey(Aisha) - Dj Piyush Sood & Dj Khushi Remix [Pr!T3sH]
5. Club Cant Handle Me (Scuba Remix) - Flo Rida ft. David Guetta [Pr!T3sH]
6. Niton (Original Mix) - Pryda [Pr!T3sH]
7. David Guetta - Love is Gone (Dj Nyk 2011 Proggy Electro Mix) [Pr!T3sH]
8. Toh Phir Aao (Awarapan) - Nds and Blue Remix [Pr!T3sH]
9. Basanti - Dj Lijo Remix [Pr!T3sH]
10. Tiesto = Love Comes Again (Dj Nyk 2011 Electro Mix) [Pr!T3sH]
11. Pee Lun V/S Go (Dj Nyk Mashup Mix) [Pr!T3sH]
12. Anjaana Anjaani - Title Track (Dj Tejas Remix) [Pr!T3sH]

ElectroNYK Podcast Episode 4 - RUNDOWN PART - 2

1. Hairat (Anjaana Anjaani) - NeilNash Remix [Pr!T3sH]
2. Missing (EBTG) - Dj Nyk ft. Jon Dasz [Pr!T3sH]
3. Vela (Jaytech) - Original Mix [Pr!T3sH]
4. Arrival - Gareth Emery ft. Brute Force [Pr!T3sH]
5. Har Kisiko v/s Aliens & Butterfly - Dj Nyk Mashup Mix [Pr!T3sH]
6. Woh Lamhe v/s Celtic of Scotland - Dj Ravish Mashup Mix [Pr!T3sH]
7. Tujhey Bhula Diya (Anjaana Anjaani) - Dj Nyk Progressive Euro Mix [Pr!T3sH]
8. India (Original Mix) - Snow Flakes [Pr!T3sH]
9. Hey ya v/s Aggressiveness Essence - Dj Ralph Mashup (Electronyk Edit) [Pr!T3sH]
10. We Are One (Giuseppe Ottaviani Remix) - PVD ft. Johnny McDaid [Pr!T3sH]
11. Karunesh - Punjab (Aftermorning Remix) [Pr!T3sH]
[/font][/color]

[font=Georgia]SEED 1:1

This is Just a RUNDOWN from Dj Nyk Full Electronyk Podcast Releasing soonnn...
[/font]

Related torrents

Torrent NameAddedSizeSeedLeechHealth
1 Year+ - in Music258.28 MB01
1 Year+ - in Music322.9 MB10
1 Year+ - in Music202 MB10
1 Year+ - in Music95.9 MB00
1 Year+ - in Music4.81 GB00

Comments (0 Comments)




Please login or create a FREE account to post comments

Latest Searches

| GG093 | arina nelia | v a latino 2017 | PART box | chip on my shoulder | game of thrones s2 e 4 | saul ep 3 | Nikki Darling and Nataly Gold | Sissy Neri busty milf gangbang | 2017 house singles |