Quick Browse
Movies
TV shows
Music
Games
Applications
Anime
Other

Donate and Support

Friends
Torrents.me
Torrent Download
Free Movies
1337x
RARBG
Torrent Downloads

Verified torrent ELSAMMA ENNA AANKUTTY 1CD DVDRIP XVID MP3 ESUB Striker WBZ


    Seeders : 1      Leechers : 0
Hash :BBC561F5E89E7E1AD70E14DEE02DC8628D6ACC96
Added :1 Year+ by striker123Verified torrent uploader in Movies
Size :713.04 MB
Stream :Watch Full Movies Online @ Movie4u
Share :








Warning! Do not Download Torrents Without a VPN!
Your IP Address is .   And Location is
Your Internet Provider and Government can track your torrent Activity!  Hide your IP ADDRESS with a VPN!
We Strongly Recommend Using SpyOFF Torrent VPN to Anonymize your Torrenting. It's FREE For 15 Days!

Note :

Please Update (Trackers Info) Before Downloading Torrents to See Updated Seeders And Leechers for Batter Download Speed.

Trackers List

Tracker NameLast CheckStatusSeedersLeechers




Torrent File Content (14 files)


ELSAMMA ENNA AANKUTTY 1CD DVDRIP XVID MP3 ESUB Striker WBZ
     ELSAMMA ENNA AANKUTTY 1CD DVDRIP XVID MP3 ESUB Striker WBZ.avi -
694.08 MB

     ELSAMMA ENNA AANKUTTY 1CD DVDRIP XVID MP3 ESUB Striker WBZ.idx -
89.99 KB

     ELSAMMA ENNA AANKUTTY 1CD DVDRIP XVID MP3 ESUB Striker WBZ.sub -
8.14 MB

     Sample.avi -
10.4 MB

    Screens
          1.jpg -
68.46 KB

          10.jpg -
19.35 KB

          2.jpg -
45.02 KB

          3.jpg -
21.72 KB

          4.jpg -
30.95 KB

          5.jpg -
39.1 KB

          6.jpg -
24.87 KB

          7.jpg -
33.38 KB

          8.jpg -
26.15 KB

          9.jpg -
24.12 KB



Description



http://2.bp.blogspot.com/_7m0x64tKvQQ/TLM_zNuJREI/AAAAAAAAAq8/ZTOsed_321Y/s1600/elsamma_enna_aankutty_stills_%2B%286%29.jpg


[code]
General

Format : AVI
Format/Info : Audio Video Interleave
File size : 694 MiB
Duration : 2h 22mn
Overall bit rate : 679 Kbps
Writing application : VirtualDubMod 1.5.10.2 (build 2540/release)
Writing library : VirtualDubMod build 2540/release

Video
ID : 0
Format : MPEG-4 Visual
Format profile : Advanced [email protected]
Format settings, BVOP : 2
Format settings, QPel : Yes
Format settings, GMC : No warppoints
Format settings, Matrix : Default (H.263)
Codec ID : XVID
Codec ID/Hint : XviD
Duration : 2h 22mn
Bit rate : 541 Kbps
Width : 640 pixels
Height : 272 pixels
Display aspect ratio : 2.35:1
Frame rate : 23.976 fps
Color space : YUV
Chroma subsampling : 4:2:0
Bit depth : 8 bits
Scan type : Progressive
Compression mode : Lossy
Bits/(Pixel*Frame) : 0.130
Stream size : 554 MiB (80%)
Writing library : XviD 1.2.1 (UTC 2008-12-04)

Audio
ID : 1
Format : MPEG Audio
Format version : Version 1
Format profile : Layer 3
Mode : Joint stereo
Mode extension : MS Stereo
Codec ID : 55
Codec ID/Hint : MP3
Duration : 2h 22mn
Bit rate mode : Constant
Bit rate : 128 Kbps
Channel(s) : 2 channels
Sampling rate : 44.1 KHz
Compression mode : Lossy
Delay relative to video : 5s 989ms
Stream size : 131 MiB (19%)
Alignment : Split accross interleaves
Interleave, duration : 42 ms (1.00 video frame)
Interleave, preload duration : 500 ms
Writing library : LAME3.98.2

[/code]

[url=http://www.phyrefile.com/image/view/qBp2ppwlSxkfi7eg]
http://thumb.phyrefile.com/s/sh/shahaz/2011/04/11/300/1_001.jpg
[/url]
[url=http://www.phyrefile.com/image/view/s3lDm3uqd6WWZQHN]
http://thumb.phyrefile.com/s/sh/shahaz/2011/04/11/300/2_001.jpg
[/url]
[url=http://www.phyrefile.com/image/view/qGjm0AD7clHkouWO]
http://thumb.phyrefile.com/s/sh/shahaz/2011/04/11/300/3_001.jpg
[/url]
[url=http://www.phyrefile.com/image/view/psJ0BrdSEg3R6aYA]
http://thumb.phyrefile.com/s/sh/shahaz/2011/04/11/300/4_001.jpg
[/url]
[url=http://www.phyrefile.com/image/view/Kmnm39Fv1fvDMDx4]
http://thumb.phyrefile.com/s/sh/shahaz/2011/04/11/300/5_001.jpg
[/url]
[url=http://www.phyrefile.com/image/view/yAHbNwbJSvPNQCkU]
http://thumb.phyrefile.com/s/sh/shahaz/2011/04/11/300/6_001.jpg
[/url]
[url=http://www.phyrefile.com/image/view/rT5sSKVzolSARZXM]
http://thumb.phyrefile.com/s/sh/shahaz/2011/04/11/300/7_001.jpg
[/url]
[url=http://www.phyrefile.com/image/view/sy25g2dO4q82Q56p]
http://thumb.phyrefile.com/s/sh/shahaz/2011/04/11/300/8_001.jpg
[/url]
[url=http://www.phyrefile.com/image/view/jSejSSP4hQKAC3Uh]
http://thumb.phyrefile.com/s/sh/shahaz/2011/04/11/300/9_001.jpg
[/url]
[url=http://www.phyrefile.com/image/view/wVcPGvHm75f2bJOj]
http://thumb.phyrefile.com/s/sh/shahaz/2011/04/11/300/10_001.jpg
[/url]

Related torrents

Torrent NameAddedSizeSeedLeechHealth
1 Year+ - in Movies902.15 MB12
Verified torrent
9 months ago - in Movies696.55 MB2995
Verified torrent
1 Year+ - in Movies707.9 MB23167
1 Year+ - in Movies708.37 MB00
1 Year+ - in Movies711.41 MB00

Comments (0 Comments)




Please login or create a FREE account to post comments

Latest Searches

| Marathoners | o principe e o mendigo | sexart 17 09 22 | Shemale Cougar 5 Casting Call | southern blues live | hevc batman | ladyboy outdoors | Pretty Sloppy 6 2015 | Doctor Strange 2016 720p HDRip X264 AC3 EVOEtHD | Open Your Eyes Abre Los Ojos 1997 DVD iso |