Quick Browse
Movies
TV shows
Music
Games
Applications
Anime
Other
Facebook
Advertising

Friends
Torrent Download
Movie4u
1337x.to
Torrent Downloads




Eagle Eye [2008] 1264x528 HD Hindi~3385VKSH


    Seeders : 34      Leechers : 78
Hash :F29D5FEFE64782DD2960DC9A550647EA0C019EA4
Added :1 Year+ by VKS3385Verified torrent uploader in Movies
Size :1.31 GB
Stream :WATCH ONLINE @ Movie4u


Eagle Eye [2008] 1264x528 HD Hindi~3385VKSH
Free and Fast Download with Usenet 300GB+ free







Trackers List

Tracker NameLast CheckStatusSeedersLeechers




Torrent File Content (2 files)


Eagle Eye [2008] 1264x528 HD Hindi
     Eagle Eye [2008] 1264x528 HD Hindi.mkv -
1.31 GB

     Eagle Eye.jpg -
153.29 KB



Description



http://img340.imageshack.us/img340/1050/hddesirockers.png

http://img62.imageshack.us/img62/5382/roadsignphp.png


http://img822.imageshack.us/img822/3717/eagleeye.jpg


http://i50.tinypic.com/zvbzx2.jpg

General
Complete name : Eagle Eye [2008] 1264x528 HD Hindi.mkv
Format : Matroska
File size : 1.31 GiB
Duration : 1h 52mn
Overall bit rate : 1 664 Kbps
Encoded date : UTC 2010-08-01 03:40:55
Writing application : mkvmerge v4.1.1 ('Bouncin' Back') built on Jul 3 2010 22:54:08
Writing library : libebml v1.0.0 + libmatroska v1.0.0


http://img37.imageshack.us/img37/7218/vlcfile.png

Video
ID : 1
Format : AVC
Format/Info : Advanced Video Codec
Format profile : [email protected]
Format settings, CABAC : Yes
Format settings, ReFrames : 3 frames
Muxing mode : Container [email protected]
Codec ID : V_MPEG4/ISO/AVC
Duration : 1h 52mn
Bit rate : 1 559 Kbps
Width : 1 264 pixels
Height : 528 pixels
Display aspect ratio : 2.35:1
Frame rate : 25.000 fps
Original frame rate : 23.976 fps
Color space : YUV
Chroma subsampling : 4:2:0
Bit depth : 8 bits
Scan type : Progressive
Bits/(Pixel*Frame) : 0.093
Stream size : 1.23 GiB (94%)
Writing library : x264 core 68 r1183M f21daff

http://img248.imageshack.us/img248/6613/musicfile1.png

Audio
ID : 2
Format : MPEG Audio
Format version : Version 1
Format profile : Layer 3
Mode : Joint stereo
Mode extension : MS Stereo
Codec ID : A_MPEG/L3
Codec ID/Hint : MP3
Duration : 1h 52mn
Bit rate mode : Constant
Bit rate : 64.0 Kbps
Channel(s) : 2 channels
Sampling rate : 44.1 KHz
Video delay : 4s 700ms
Stream size : 51.6 MiB (4%)


http://i43.tinypic.com/2rms307.jpg


http://img340.imageshack.us/img340/7601/snapshot20090907103253.jpg

http://img819.imageshack.us/img819/9987/snapshot20090907103326.jpg

http://img690.imageshack.us/img690/7173/snapshot20090907103452.jpg

http://img529.imageshack.us/img529/8771/snapshot20090907103528.jpg

http://img830.imageshack.us/img830/112/snapshot20090907103841.jpg

http://img529.imageshack.us/img529/8061/snapshot20090907103946.jpg

http://img529.imageshack.us/img529/421/snapshot20090907104054.jpg

http://img153.imageshack.us/img153/7785/snapshot20090907104133.jpg


http://img41.imageshack.us/img41/4206/slqp2p1.gif

http://i26.tinypic.com/24w6l1j.jpg




Related torrents

Torrent NameAddedSizeSeedLeechHealth
1 Year+ - in Movies1.42 GB11114
1 Year+ - in Movies425.63 MB129
8 months ago - in Other2.73 GB00
10 months ago - in Other2.73 GB00
Verified torrent
1 Year+ - in Movies1.26 GB82683

Comments (0 Comments)




Please login or create a FREE account to post comments

Latest Searches

| sex pistols therell always be an england | nikki benz december | M S Dhoni The Untold Story 2016 Hindi 720p HDRip x264 AAC ESubs Downloadhub | round ass double | greatness moolah young | arrow s05e01 1080p web dl x265 hevc 10bit ac3 5 1 qman utr | cockasian 1 2 3 4 handheld pictures xxx 2006 2009 | Family Therapy Shane Blair Temptation Trilogy SD | daddy Yankee remix rompe | hunter november |