Quick Browse
Movies
TV shows
Music
Games
Applications
Anime
Other
Facebook
Advertising

Friends
Torrent Download
Movie4u
1337x.to
Torrent Downloads




Eagles - Farewell 1 Tour[2005]DVDrip[Eng]-Atlas47


    Seeders : 2      Leechers : 24
Hash :11FDF32204C1835574BA6D908031BCBA5C2E40EA
Added :1 Year+ in Music - Music
Size :2.35 GB
Stream :WATCH ONLINE @ Movie4u


Eagles - Farewell 1 Tour[2005]DVDrip[Eng]-Atlas47
Free and Fast Download with Usenet 300GB+ free







Trackers List

Tracker NameLast CheckStatusSeedersLeechers




Torrent File Content (6 files)


Eagles - Farewell 1 Tour[2005]DVDrip[Eng]-Atlas47
    Covers
          Eagles - Farewell Tour.jpg -
1.43 MB

    Disc 1
          Eagles - Farewell Tour Disc1.avi -
1.37 GB

    Disc 2
          Eagles - Farewell Tour Disc 2.avi -
900.36 MB

          Extras.avi -
100.05 MB

     Eagles - Farewell 1 Tour.nfo -
10.7 KB

     Torrent_downloaded_from_Demonoid.com.txt -
47 bytes



Description



±±±±±±±±±±±±±±±±±±±±±±±±±±±±±±±±±±±±±±±±±±±±±±±±±±±±±±±±±±±±±±±±±±±±±±±±±±±±±±±±
±                                                                              ±
± INFO:                                                                        ±
±                                                                              ±
± General                                                                      ±
± Complete name                    : Eagles - Farewell 1 Tour Disc1 / Disc 2   ±
± Format                           : AVI                                       ±
± Format/Info                      : Audio Video Interleave                    ±
± File size                        : 1.37 GiB / 900 MiB                        ±
± Duration                         : 1h 39mn / 1h 5mn                          ±
± Overall bit rate                 : 1 975 Kbps / 1 929 Kbps                   ±
± Writing application              : VirtualDubMod 1.5.4.1 (build 2178/release)±
± Writing library                  : VirtualDubMod build 2178/release          ±
±                                                                              ±
± Video                                                                        ±
± Format                           : MPEG-4 Visual                             ±
± Format settings, BVOP            : Yes                                       ±
± Format settings, QPel            : No                                        ±
± Format settings, GMC             : No warppoints                             ±
± Format settings, Matrix          : Default                                   ±
± Codec ID                         : DX50                                      ±
± Codec ID/Hint                    : DivX 5                                    ±
± Duration                         : 1h 39mn / 1h 5mn                          ±
± Bit rate                         : 1 648 Kbps / 1 602 Kbps                   ±
± Width                            : 640 pixels / 608 pixels                   ±
± Height                           : 368 pixels / 352 pixels                   ±
± Display aspect ratio             : 16/9                                      ±
± Frame rate                       : 25.000 fps                                ±
± Resolution                       : 24 bits                                   ±
± Colorimetry                      : 4:2:0                                     ±
± Scan type                        : Progressive                               ±
± Bits/(Pixel*Frame)               : 0.280 / 0.299                             ±
± Stream size                      : 1.14 GiB (83%) / 748 MiB (83%)            ±
± Writing library                  : DivX 2816                                 ±
±                                                                              ±
± Audio                                                                        ±
± Format                           : MPEG Audio                                ±
± Format version                   : Version 1                                 ±
± Format profile                   : Layer 3                                   ±
± Codec ID                         : 55                                        ±
± Codec ID/Hint                    : MP3                                       ±
± Duration                         : 1h 39mn / 1h 5mn                          ±
± Bit rate mode                    : Constant                                  ±
± Bit rate                         : 320 Kbps                                  ±
± Channel(s)                       : 2 channels                                ±
± Sampling rate                    : 48.0 KHz                                  ±
± Resolution                       : 16 bits                                   ±
± Stream size                      : 227 MiB (16%) / 149 MiB (17%)             ±
± Alignment                        : Aligned on interleaves                    ±
± Interleave, duration             : 80 ms (2.00 video frame)                  ±
± Interleave, preload duration     : 504 ms                                    ±
± Writing library                  : LAME3.98r                                 ±
± Encoding settings                : CBR                                       ±
± Language                         : English                                   ±
±                                                                              ±
± IMDb Rating                      : 8.9/10                                    ±
± IMDb URL                         : http://www.imdb.com/title/tt0476452/      ±
±                                                                              ±
±°°°°°°°°°°°°°°°°°°°°°°°°°°°°°°°°°°°°°°°°°°°°°°°°°°°°°°°°°°°°°°°°°°°°°°°°°°°°°°±
±                                                                              ±
± Track Listing                                                                ±
±                                                                              ±
± Disc 1                                  Disc 2                               ±  
±                                                                              ±
± The Long Run                            Life's Been Good                     ±
± New Kid In Town                         Dirty Laundry                        ±
± Wasted Time                             Funk #49                             ±
± Peaceful Easy Feeling                   Heartache Tonight                    ±
± I Can't Tell You Why                    Life In The Fast Lane                ±
± One Of These Nights                     Hotel California                     ±
± One Day At A Time                       Rocky Mountain Way                   ±
± Lyin' Eyes                              All She Wants To Do Is Dance         ±
± The Boys Of Summer                      Take It Easy                         ±
± In The City                             Desperado                            ±
± Already Gone                                                                 ±
± Silent Spring (Intro)                                                        ±
± Tequila Sunrise                                                              ±
± Love Will Keep Us Alive                                                      ±
± No More Cloudy Days                                                          ±
± Hole In The World                                                            ±
± Take It To The Limit                                                         ±
± You Belong To The City                                                       ±
± Walk Away                                                                    ±
± Sunset Grill                                                                 ±
±                                                                              ±
±°°°°°°°°°°°°°°°°°°°°°°°°°°°°°°°°°°°°°°°°°°°°°°°°°°°°°°°°°°°°°°°°°°°°°°°°°°°°°°±

Related torrents

Torrent NameAddedSizeSeedLeechHealth
1 Year+ - in Movies16.16 GB1112
1 Year+ - in Movies8.04 GB415
1 Year+ - in Movies4.23 GB00
1 Year+ - in Movies5.22 GB112
1 Year+ - in Music5.2 GB17

Comments (0 Comments)




Please login or create a FREE account to post comments

Latest Searches

| all i want for christmas tommy emmanuel | hymn for the weekend seeb | Bridget Jones Baby 2016 mkv | marvels s04e08 | Super Mario Bros Super Mario Bros 1993 | the s07e13 big bang theory | from in paris | Synplant OS X Sonic Charge | Round And Brown Cassidy Banks | serial uniblue driver scanner |