Quick Browse
Movies
TV shows
Music
Games
Applications
Anime
Other
Facebook
Advertising

Friends
Torrent Download
Movie4u
1337x.to
Torrent Downloads




Verified torrent Ecstasy (2011) HDRip x264-BBnRG


    Seeders : 1      Leechers : 0
Hash :122C96CC7FDA6C13EC36AC57F8A842E5F03397F0
Added :1 Year+ by memory100Verified torrent uploader in Movies
Size :986.87 MB
Stream :WATCH ONLINE @ Movie4u


Ecstasy (2011) HDRip x264-BBnRG
Free and Fast Download with Usenet 300GB+ free







Trackers List

Tracker NameLast CheckStatusSeedersLeechers




Torrent File Content (8 files)


Ecstasy (2011) HDRip x264-BBnRG
     Budget seedboxs.txt -
44 bytes

     Ecstasy (2011) HDRip x264-BBnRG.mp4 -
986.85 MB

     NFO.nfo -
6.53 KB

     NW RG.nfo -
12.96 KB

     Torrent downloaded from Demonoid.me.txt -
46 bytes

     dreamthe.net.txt -
91 bytes

     northernwarriors.net.txt -
135 bytes

     sceneunderground.org.txt -
77 bytes



Description



http://i.imgur.com/xFqUD.png

[code]
Ecstasy (2011) HDRip x264-BBnRG

Complete name : Ecstasy (2011) HDRip x264-BBnRG
Format : MPEG-4
Format profile : Base Media / Version 2
Codec ID : mp42
File size : 987 MiB
Duration : 1h 35mn
Overall bit rate : 1 438 Kbps

Video
ID : 1
Format : AVC
Format/Info : Advanced Video Codec
Format profile : [email protected]
Format settings, CABAC : Yes
Format settings, ReFrames : 4 frames
Codec ID : avc1
Codec ID/Info : Advanced Video Coding
Duration : 1h 35mn
Bit rate mode : Variable
Bit rate : 1 293 Kbps
Width : 720 pixels
Height : 304 pixels
Display aspect ratio : 2.35:1
Frame rate mode : Variable
Frame rate : 23.976 fps
Minimum frame rate : 23.974 fps
Maximum frame rate : 23.981 fps
Color space : YUV
Chroma subsampling : 4:2:0
Bit depth : 8 bits
Scan type : Progressive
Bits/(Pixel*Frame) : 0.246
Stream size : 874 MiB (89%)
Writing library : x264 core 112

Audio
ID : 2
Format : AAC
Format/Info : Advanced Audio Codec
Format profile : LC
Codec ID : 40
Duration : 1h 35mn
Bit rate mode : Variable
Bit rate : 160 Kbps
Maximum bit rate : 281 Kbps
Channel(s) : 2 channels
Channel positions : Front: L R
Sampling rate : 44.1 KHz
Compression mode : Lossy
Stream size : 110 MiB (11%)

Encoder: SMiLE

Plot:
A single church-going mother desperately tries to save her two daughters from walking down the same
dark path she was once on; and a young woman fights against addiction to a mysterious party drug.

IMDB: http://www.imdb.com/title/tt1552221/

Source(s):
Video: Ecstasy.2011.DivX-1080p.ETC1337 (Big Thanks Mate!)
Audio: Ecstasy.2011.DivX-1080p.ETC1337 (Big Thanks Mate!)

Release Notes:
Here we go with another fine release. Firstly a big thanks goes out to our matey ETC for providing
the source files for this rip. I took the 3.6gb DivX file, i made a slight crop to remove the black
bar along the top, changed the dimensions and then made a conversion from DivX to a 1gb MP4 file.
This took me quite a long time but the quality is incredible. Also, we didn't know what to name this,
there is no confirmed DVD or Blu-ray date out, infact this movie has not been released yet,
but this looks like a Blu-ray, therefore we named it as a HDRip. Anyway, Enjoy!

BBnRG: The Gods Of Great Quality Rips At A Small File Size.

SMiLE: Presenting Another Great Quality Release At A Small File Size.
[/CODE]
Sreens:
http://i.imgur.com/eOg0Q.png

http://i.imgur.com/twAiO.png

http://i.imgur.com/mAzaN.png

http://i.imgur.com/wiu4g.png

http://i.imgur.com/NtOoJ.png

http://i.imgur.com/mtlwa.png

Related torrents

Torrent NameAddedSizeSeedLeechHealth
1 Year+ - in Movies986.85 MB397
1 Year+ - in Movies402.05 MB04
1 Good
1 Year+ - in Movies399.92 MB00
1 Year+ - in Movies356.05 MB00
1 Year+ - in Movies745.27 MB00

Comments (0 Comments)




Please login or create a FREE account to post comments

Latest Searches

| dragon ball super 720p 054 | bbc nature fossil | Flying lotus youre dead | Thunder Live at Donington | stuff and more | Van Helsing S01E02 ettv | Joymii Lou Nikolas Fuck Me | hot girl has sex | teensloveanal alina west mom knows best new team skeet july 17 2015 new | under the dome s01e04 hdtv reenc x264 theseeker |