Quick Browse
Movies
TV shows
Music
Games
Applications
Anime
Other
Facebook
Advertising

Friends
Torrent Download
Movie4u
1337x.to
Torrent Downloads




Verified torrent Edu Lobo e Tom Jobim - Edu e Tom [Eac Flac Cue][h33t]


    Seeders : 14      Leechers : 8
Hash :2AB7DFC10F62EEECCAFDFF797DDE9E43FD66CBBC
Added :1 Year+ by leoneneroVerified torrent uploader in Music - Music
Size :230.25 MB
Stream :WATCH ONLINE @ Movie4u


Edu Lobo e Tom Jobim - Edu e Tom [Eac Flac Cue][h33t]
Free and Fast Download with Usenet 300GB+ free







Trackers List

Tracker NameLast CheckStatusSeedersLeechers




Torrent File Content (15 files)


Edu Lobo e Tom Jobim - Edu e Tom
     (1981) Edu & Tom.cue -
1.71 KB

     00._%EduLoboetomJobim%_-_%EdueTom%.nfo -
2.03 KB

     01 - Ai Quem Me Dera.flac -
14.03 MB

     02 - Pra Dizer Adeus.flac -
29.02 MB

     03 - Chovendo na Roseira.flac -
22.78 MB

     04 - Moto ContInuo.flac -
22.98 MB

     05 - Angela.flac -
19.53 MB

     06 - Luiza.flac -
17.85 MB

     07 - Cancao do Amanhecer.flac -
26.85 MB

     08 - Vento Bravo.flac -
29.55 MB

     09 - E Preciso Dizer Adeus.flac -
27.5 MB

     10 - Canto Triste.flac -
20.08 MB

     Edu Lobo E Tom Jobim - (1981) Edu & Tom.log -
12.79 KB

     Edu Lobo E Tom Jobim - (1981) Edu & Tom.m3u -
256 bytes

     Folder.JPG -
63.48 KB



Description



http://img198.imageshack.us/img198/2434/progettocover.jpg


Edu e Tom - Edu e Tom (1981)

http://img824.imageshack.us/img824/1825/dsc00719o.jpg


http://img689.imageshack.us/img689/3430/dsc00718kg.jpg


http://img88.imageshack.us/img88/117/dsc00716.gif


Title: Edu e Tom - Edu e Tom
Label: Universal
Format: cd
Country: Brazil
Released: 1981
Genre: Mpb
Style: Jazz
Source: CD
Playing Time.........: 36.13
Total Size...........: 230,17 MB
Band:
Tom Jobim: Voz e piano
Edu Lobo: Voz e violão
Sergio Barroso: Baixo
Paulo Braga: Bateria
Marcio Montarroyos: Flugelhorn
Violões em "Chovendo na Roseira " e "Luísa" : Paulo Jobim e Luís Cláudio
Baixo em "É Preciso Dizer Adeus" : Luis Alves
Violão em "É Preciso Dizer Adeus" : Luis Cláudio


http://img842.imageshack.us/img842/2360/valutazione.gif


http://img98.imageshack.us/img98/9113/progettotracklist.jpg


1.Ai Quem Me Dera [02.12]
2.Pra Dizer Adeus [04.40]
3.Chovendo na Roseira [03.23]
4.Moto Continuo [03.28]
5.Angela [03.09]
6.Luiza [02.58]
7.Cancao do Amanhecer [04.06]
8.Vento Bravo [04.15]
9.E Preciso Dizer Adeus [04.17]
10.Canto Triste [03.42]


http://img121.imageshack.us/img121/5530/progettodescrizione.jpg


If that old cliche "a match made in Heaven" didn't exist, it would have to be created to describe this album, as it unites two of Brazil's greatest melodists ever. The generation that came right after Bossa Nova produced no few masters of melody, such as Marcos Valle, Dori Caymmi and Francis Hime; but, much as I dislike absolutes, Edu Lobo is to me the finest of the lot, and the one who comes closest to Jobim (of whom nothing need be said) in range, sophistication and just plain beauty. Small wonder that Vinicius de Moraes, who, together with Jobim and Joao Gilberto, defined Bossa Nova, was also Edu's frequent partner - two of the songs in this album are by Edu and Vinicius. Small wonder that one of those, Canto Triste, was recorded, with English lyrics of her own which Vinicius himself regarded as the best versions ever of his original words, by Lani Hall, the US singer who had the (here I go absolutizing again) most perfect feeling for Brazilian music, who also recorded (and wrote the English lyrics for) another of this CD's selections, Pra Dizer Adeus. And no wonder at all that Tom and Edu blend so perfectly in every aspect: listeners who are not familiar with the songs may be hard pressed to guess which song is by whom. Edu sings Tom's Chovendo na Roseira as if he had written it, Tom joins in in Edu's uptempo Vento Bravo (with *both* playing piano) as if it had come out of his Matita Pere album. The selections? Gem after gem. If you have an ear for beauty, don't miss this one.

http://img713.imageshack.us/img713/7143/progettodatitecnici.jpg



Exact Audio Copy V1.0 beta 3 from 29. August 2011

EAC extraction logfile from 17. January 2012, 6:10

Edu Lobo & Tom Jobim / (1981) Edu & Tom

Used drive : HL-DT-STDVDRAM GSA-T40N Adapter: 0 ID: 0

Read mode : Secure
Utilize accurate stream : Yes
Defeat audio cache : Yes
Make use of C2 pointers : No

Read offset correction : 667
Overread into Lead-In and Lead-Out : No
Fill up missing offset samples with silence : Yes
Delete leading and trailing silent blocks : No
Null samples used in CRC calculations : Yes
Used interface : Native Win32 interface for Win NT & 2000
Gap handling : Appended to previous track

Used output format : User Defined Encoder
Selected bitrate : 896 kBit/s
Quality : High
Add ID3 tag : No
Command line compressor : C:\Program Files\Exact Audio Copy\FLAC\FLAC.EXE
Additional command line options : -8 -V -T "ARTIST=%artist%" -T "TITLE=%title%" -T "ALBUM=%albumtitle%" -T "DATE=%year%" -T "TRACKNUMBER=%tracknr%" -T "GENRE=%genre%" -T "COMMENT=%comment%" -T "BAND=%albuminterpret%" -T "ALBUMARTIST=%albuminterpret%" -T "COMPOSER=%composer%" %haslyrics%--tag-from-file=LYRICS="%lyricsfile%"%haslyrics% -T "DISCNUMBER=%cdnumber%" -T "TOTALDISCS=%totalcds%" -T "TOTALTRACKS=%numtracks%" %hascover%--picture="%coverfile%"%hascover% %source% -o %dest%


TOC of the extracted CD

Track | Start | Length | Start sector | End sector
---------------------------------------------------------
1 | 0:00.00 | 2:12.12 | 0 | 9911
2 | 2:12.12 | 4:40.23 | 9912 | 30934
3 | 6:52.35 | 3:23.15 | 30935 | 46174
4 | 10:15.50 | 3:28.22 | 46175 | 61796
5 | 13:43.72 | 3:09.10 | 61797 | 75981
6 | 16:53.07 | 2:58.30 | 75982 | 89361
7 | 19:51.37 | 4:06.33 | 89362 | 107844
8 | 23:57.70 | 4:15.27 | 107845 | 126996
9 | 28:13.22 | 4:17.40 | 126997 | 146311
10 | 32:30.62 | 3:42.73 | 146312 | 163034


Track 1

Filename F:\Nuova cartella\Edu Lobo e Tom Jobim - Edu e Tom\01 - Ai Quem Me Dera.flac

Pre-gap length 0:00:02.00

Peak level 97.8 %
Extraction speed 1.3 X
Track quality 99.9 %
Test CRC 5794C18E
Copy CRC 5794C18E
Cannot be verified as accurate (confidence 4) [1AB52DAC], AccurateRip returned [75F12FEC] (AR v2)
Copy OK

Track 2

Filename F:\Nuova cartella\Edu Lobo e Tom Jobim - Edu e Tom\02 - Pra Dizer Adeus.flac

Pre-gap length 0:00:01.05

Peak level 97.8 %
Extraction speed 2.4 X
Track quality 100.0 %
Test CRC 91FC4EA3
Copy CRC 91FC4EA3
Cannot be verified as accurate (confidence 4) [17C6CA39], AccurateRip returned [E889B747] (AR v2)
Copy OK

Track 3

Filename F:\Nuova cartella\Edu Lobo e Tom Jobim - Edu e Tom\03 - Chovendo na Roseira.flac

Pre-gap length 0:00:01.20

Peak level 98.0 %
Extraction speed 1.1 X
Track quality 99.9 %
Test CRC 04801533
Copy CRC 04801533
Cannot be verified as accurate (confidence 4) [14421147], AccurateRip returned [606B4396] (AR v2)
Copy OK

Track 4

Filename F:\Nuova cartella\Edu Lobo e Tom Jobim - Edu e Tom\04 - Moto Cont nuo.flac

Pre-gap length 0:00:01.45

Peak level 95.9 %
Extraction speed 2.2 X
Track quality 100.0 %
Test CRC 2A9EED3A
Copy CRC 2A9EED3A
Cannot be verified as accurate (confidence 4) [52385E46], AccurateRip returned [FB16A532] (AR v2)
Copy OK

Track 5

Filename F:\Nuova cartella\Edu Lobo e Tom Jobim - Edu e Tom\05 - ngela.flac

Pre-gap length 0:00:01.62

Peak level 95.5 %
Extraction speed 2.2 X
Track quality 100.0 %
Test CRC 9593509D
Copy CRC 9593509D
Cannot be verified as accurate (confidence 4) [8D91A775], AccurateRip returned [CD50AB3D] (AR v2)
Copy OK

Track 6

Filename F:\Nuova cartella\Edu Lobo e Tom Jobim - Edu e Tom\06 - Luiza.flac

Pre-gap length 0:00:01.37

Peak level 95.0 %
Extraction speed 1.5 X
Track quality 100.0 %
Test CRC 1A5F9513
Copy CRC 1A5F9513
Cannot be verified as accurate (confidence 4) [F16EDFA8], AccurateRip returned [BE352D85] (AR v2)
Copy OK

Track 7

Filename F:\Nuova cartella\Edu Lobo e Tom Jobim - Edu e Tom\07 - Can o do Amanhecer.flac

Peak level 96.5 %
Extraction speed 1.6 X
Track quality 100.0 %
Test CRC 4EE5F274
Copy CRC 4EE5F274
Cannot be verified as accurate (confidence 4) [C993B4C9], AccurateRip returned [B0938900] (AR v2)
Copy OK

Track 8

Filename F:\Nuova cartella\Edu Lobo e Tom Jobim - Edu e Tom\08 - Vento Bravo.flac

Peak level 94.7 %
Extraction speed 1.8 X
Track quality 100.0 %
Test CRC 8ECA60EF
Copy CRC 8ECA60EF
Cannot be verified as accurate (confidence 4) [6E1B96ED], AccurateRip returned [1CCB5802] (AR v2)
Copy OK

Track 9

Filename F:\Nuova cartella\Edu Lobo e Tom Jobim - Edu e Tom\09 - Preciso Dizer Adeus.flac

Pre-gap length 0:00:01.22

Peak level 96.3 %
Extraction speed 1.9 X
Track quality 100.0 %
Test CRC EE2BB758
Copy CRC EE2BB758
Cannot be verified as accurate (confidence 4) [73792AE2], AccurateRip returned [E21676F4] (AR v2)
Copy OK

Track 10

Filename F:\Nuova cartella\Edu Lobo e Tom Jobim - Edu e Tom\10 - Canto Triste.flac

Pre-gap length 0:00:01.47

Peak level 96.0 %
Extraction speed 1.8 X
Track quality 100.0 %
Test CRC 54F689B0
Copy CRC 54F689B0
Cannot be verified as accurate (confidence 4) [B58FAC89], AccurateRip returned [444AE9B1] (AR v2)
Copy OK


No errors occurred

End of status report

---- CUETools DB Plugin V2.1.3

[CTDB TOCID: wKH35WGgJUCRfm3EM.wKnekPfJg-] disk not present in database, Submit result: wKH35WGgJUCRfm3EM.wKnekPfJg- has been uploaded


==== Log checksum 758F3169AF235D6ECE92CBEDC3A819960DC9997519F25B1E8191501FB5EDB5D6 ====


http://img521.imageshack.us/img521/763/progettobandaeseed.jpg


24h: 80/90 Kb/s

Related torrents

Torrent NameAddedSizeSeedLeechHealth
Verified torrent
1 Year+ - in Music190.54 MB121
Verified torrent
1 Year+ - in Music444.41 MB1511
Verified torrent
1 Year+ - in Music153.64 MB00
Verified torrent
1 Year+ - in Music388.47 MB20
1 Year+ - in Music428 MB00

Comments (0 Comments)




Please login or create a FREE account to post comments

Latest Searches

| Abbey Brooks Busty Beauties | Travelers 2016 S01E08 | milf xxx classic | trapavelli 3 2 chainz | Non stop 90 mix | Conviction S01E09 HDTV x264 LOL | tony bennettamy winehouse | DESTROY ERASE IMPROVE MESHUGGAH | Shoot the Messenger S01E08 | Halloween Black Mea Melone |