Quick Browse
Movies
TV shows
Music
Games
Applications
Anime
Other
Facebook
Advertising

Friends
Torrent Download
Movie4u
1337x.to
Torrent Downloads




Ek Aur Ek Gyarah (2003) Dvd-RiP [desidhamal com] [xRG]


    Seeders : 0      Leechers : 0
Hash :0644A6FF0719607EA550933B145CA13975B9AB99
Added :1 Year+ in Movies
Size :899.95 MB
Stream :WATCH ONLINE @ Movie4u


Ek Aur Ek Gyarah (2003) Dvd-RiP [desidhamal com] [xRG]
Free and Fast Download with Usenet 300GB+ free







Trackers List

Tracker NameLast CheckStatusSeedersLeechers




Torrent File Content (1 file)


Ek_Aur_Ek_Gyarah_(2003)_Dvd-RiP_[desidhamal.com]_[xRG]
     Ek_Aur_Ek_Gyarah_(2003)_-Dvd-RiP_[desidhamal.com]_[xRG].avi -
899.95 MB



Description



exceptional movie

General
Format : MPEG-4
Format profile : Base Media
Codec ID : isom
File size : 701 MiB
Duration : 2h 34mn
Overall bit rate : 634 Kbps
Encoded date : UTC 2008-11-08 16:36:02
Tagged date : UTC 2008-11-08 16:36:02

Video
Format : AVC
Format/Info : Advanced Video Codec
Format profile : [email protected]
Format settings, CABAC : Yes
Format settings, ReFrames : 1 frame
Codec ID : avc1
Codec ID/Info : Advanced Video Coding
Duration : 2h 34mn
Bit rate mode : Variable
Bit rate : 503 Kbps
Maximum bit rate : 1 639 Kbps
Width : 640 pixels
Height : 272 pixels
Display aspect ratio : 2.35
Frame rate mode : Constant
Frame rate : 29.970 fps
Resolution : 24 bits
Colorimetry : 4:2:0
Scan type : Progressive
Bits/(Pixel*Frame) : 0.096
Stream size : 557 MiB (79%)
Writing library : x264 core 65 r1016M dbc5ef0
Encoded date : UTC 2008-11-08 08:00:13
Tagged date : UTC 2008-11-08 16:46:04

Audio
Format : MPEG Audio
Format version : Version 1
Format profile : Layer 3
Codec ID : 6B
Duration : 2h 34mn
Bit rate mode : Constant
Bit rate : 128 Kbps
Minimum bit rate : 128 Kbps
Maximum bit rate : 134 Kbps
Channel(s) : 2 channels
Sampling rate : 44.1 KHz
Resolution : 16 bits
Stream size : 142 MiB (20%)
Writing library : LAME3.98r
Encoding settings : CBR
Encoded date : UTC 2008-11-08 16:43:36
Tagged date : UTC 2008-11-08 16:46:04

Related torrents

Torrent NameAddedSizeSeedLeechHealth
1 Year+ - in Other345.98 MB10
1 Year+ - in Movies3.3 GB09
1 Year+ - in Movies3.3 GB15
1 Year+ - in Movies677.2 MB00
1 Year+ - in Movies444.8 MB00

Comments (0 Comments)




Please login or create a FREE account to post comments

Latest Searches

| Teen Wolf S02E10 HDTV x264 FQM | Suits S05E03 immerse | but lie | evil angel lex breast | sara chicago | mystical L | kaempestore | T 545 | gir 1 years | Vikings S04E02 HDTV x264 KILLERS srt |