Quick Browse
Movies
TV shows
Music
Games
Applications
Anime
Other
Facebook
Advertising

Friends
Torrent Download
Movie4u
1337x.to
Torrent Downloads




Verified torrent Elevator 2011 R5 DVDRip XviD AC3-26K


    Seeders : 1      Leechers : 0
Hash :E5E7E9D4967B2DC968A80BC11EB553432D852E01
Added :1 Year+ by memory100Verified torrent uploader in Movies
Size :825.44 MB
Stream :WATCH ONLINE @ Movie4u


Elevator 2011 R5 DVDRip XviD AC3-26K
Free and Fast Download with Usenet 300GB+ free







Trackers List

Tracker NameLast CheckStatusSeedersLeechers




Torrent File Content (9 files)


Elevator 2011 R5 DVDRip XviD AC3-26K
     att-networks.com.txt -
39 bytes

     Elevator 2011 R5 DVDRip XviD AC3-26K.avi -
807.79 MB

     Elevator 2011 R5 DVDRip XviD AC3-26K.nfo -
3.28 KB

     HDSceneRG.txt -
115 bytes

     sample.avi -
17.64 MB

     sceneunderground.org.txt -
77 bytes

     Torrent downloaded from Demonoid.me.txt -
46 bytes

     Torrent downloaded from rarbg.com.txt.txt -
0 bytes

     YouTube Latest Releases And Archive.txt -
80 bytes



Description



http://img862.imageshack.us/img862/5103/elevatort.jpg

[code]
Elevator 2011 R5 DVDRip XviD AC3-26K

Imdb:
http://www.imdb.com/title/tt1728975/

Plot:
Racism collides with corporate greed when nine strangers are trapped in a Wall Street elevator, and one

of them has a bomb. They will do anything to survive.

Sources:
DVDR THNXS!

Notes:
ENJOY :)

Greetz:
Xtreme Encode|FYA|ILLUMANTI|CM8|RX|VISION|HDSCENE|NIGHTMAREZ|xTriLL|DTRG|CRYS|REMIXHD|BIDA|RX|REFILL|

INSPiRAL|SIC|ZOMBIESZ|HOPE|Anonymous|GooN
To all the people who have helped me :P you know who you are

Anything to offer email us @: [email protected]

Video
ID : 0
Format : MPEG-4 Visual
Format profile : Advanced [email protected]
Format settings, BVOP : 2
Format settings, QPel : No
Format settings, GMC : No warppoints
Format settings, Matrix : Default (H.263)
Muxing mode : Packed bitstream
Codec ID : XVID
Codec ID/Hint : XviD
Duration : 1h 20mn
Bit rate : 1 005 Kbps
Width : 720 pixels
Height : 300 pixels
Display aspect ratio : 2.40:1
Frame rate : 25.000 fps
Color space : YUV
Chroma subsampling : 4:2:0
Bit depth : 8 bits
Scan type : Progressive
Compression mode : Lossy
Bits/(Pixel*Frame) : 0.186
Stream size : 580 MiB (72%)
Writing library : XviD 1.2.1 (UTC 2008-12-04)

Audio
ID : 1
Format : AC-3
Format/Info : Audio Coding 3
Mode extension : CM (complete main)
Codec ID : 2000
Duration : 1h 20mn
Bit rate mode : Constant
Bit rate : 384 Kbps
Channel(s) : 6 channels
Channel positions : Front: L C R, Side: L R, LFE
Sampling rate : 48.0 KHz
Bit depth : 16 bits
Compression mode : Lossy
Stream size : 222 MiB (27%)
Alignment : Aligned on interleaves
Interleave, duration : 32 ms (0.80 video frame)

[/code]
Screens:
http://i.imgur.com/k61LA.png

http://i.imgur.com/NdRf4.png

http://img806.imageshack.us/img806/5895/vlcsnap2012030118h24m23.png

http://img94.imageshack.us/img94/82/vlcsnap2012030118h24m32.png

http://img138.imageshack.us/img138/3048/vlcsnap2012030118h24m45.png

http://img833.imageshack.us/img833/9600/vlcsnap2012030118h24m55.png


http://img851.imageshack.us/img851/5503/26ks.jpg

Thank you smallz for banner!

Related torrents

Torrent NameAddedSizeSeedLeechHealth
1 Year+ - in Movies450 MB10
1 Year+ - in Movies1.16 GB00
1 Year+ - in Movies1.16 GB00
1 Year+ - in Movies1.16 GB00
1 Year+ - in Applications1.16 GB01

Comments (0 Comments)




Please login or create a FREE account to post comments

Latest Searches

| Best Of British s Part 4 | year year gold | mac osx photoshop fr | 4 1988 | Tiny4K Bambi | party mix s | Who Want Some T I | didn t have time | Relaxing Japanese pussy | don 3 full movie |