Quick Browse
Movies
TV shows
Music
Games
Applications
Anime
Other
Facebook
Advertising

Friends
Torrent Download
Movie4u
1337x.to
Torrent Downloads




Elis Regina - Nada Sera Como Antes[Eac Flac Cue](TntVillage)


    Seeders : 4      Leechers : 0

Trackers List

Tracker NameLast CheckStatusSeedersLeechers




Torrent File Content (13 files)


3l1s R3g1n4-N4d4 Ser4 Com0 4nt3s
     3l1s R3g1n4 - N4d4 S3r4 c0m0 4nt3s - 3lis 1nt3rpr3t4 M1lt0n.cue -
1.17 KB

     3l1s R3g1n4 - N4d4 S3r4 c0m0 4nt3s - 3lis 1nt3rpr3t4 M1lt0n.log -
5.54 KB

     folder.jpg -
32.27 KB

     Track 1.flac -
16.08 MB

     Track 10.flac -
16.31 MB

     Track 2.flac -
27.24 MB

     Track 3.flac -
17.99 MB

     Track 4.flac -
14.11 MB

     Track 5.flac -
25.51 MB

     Track 6.flac -
26.49 MB

     Track 7.flac -
20.35 MB

     Track 8.flac -
17.65 MB

     Track 9.flac -
18.38 MB



Description



http://img542.imageshack.us/img542/7838/elisreginanadaseracomoa.jpg

http://img818.imageshack.us/img818/7838/elisreginanadaseracomoa.jpg

http://img38.imageshack.us/img38/7669/elisreginanadaseracomoa.gif

Titolo: Nada Será Como Antes (Elis Interprets Milton Nascimento)

Artista: Elis Regina

Genere: Internazionale

Sottogenere: Musica Popular Brasileira

Data di uscita: 04/1993

Anno di pubblicazione: 1990

Casa discografica: Verve

Durata: 32:17

1.: Nada Será Como Antes (Nothing Will Be As It Was) 2:42

2.: Morro Velho (Old Hill) 4:47

3.: Cais (Pier) 3:17

4.: Credo (Belief) 2:10

5.: Coversando No Bar (Talking In The Bar) 4:10

6.: Travessia (Crossroads) 5:27

7.: Caxanga (Crab) 3:10

8.: Vera Cruz 2:45

9.: Cancão Do Sal 2:57

10.: Ponta De Areia (Sand Reef) 2:55

Uno dei sogni di Elis Regina era quello di poter duettare con il suo caro amico Milton Nascimento, data la sua prematura morte, come sappiamo, questo fu impossibile. Però a venirci incontro ci ha pensato nel 1993 la Philips che ha riunito tutte le canzoni scritte per lei dal suo amico. All'epoca dell'uscita del CD alcune delle canzoni erano inedite, chiuse nel cassetto a quattro mandate di Milton che le rilasciò alla Philips solamente nel 1990. Insomma, dieci tracce bellissime che non potranno mai sostituire un duetto fra i due, ma certamente vuol dimostrare un grande omaggio della casa discografica che ha registrato la storia della bossajazz brasiliana, cantata dalla sua più grande artista.

Exact Audio Copy V1.0 beta 1 from 15. November 2010

EAC extraction logfile from 13. June 2011, 12:32

Elis Regina / Nada Será como Antes - Elis Interpreta Milton

Used drive : HL-DT-STDVDRAM GSA-T40N Adapter: 0 ID: 0

Read mode : Secure
Utilize accurate stream : Yes
Defeat audio cache : No
Make use of C2 pointers : Yes

Read offset correction : 667
Overread into Lead-In and Lead-Out : No
Fill up missing offset samples with silence : Yes
Delete leading and trailing silent blocks : No
Null samples used in CRC calculations : No
Used interface : Native Win32 interface for Win NT & 2000

Used output format : User Defined Encoder
Selected bitrate : 768 kBit/s
Quality : High
Add ID3 tag : No
Command line compressor : c:UsersleomarcoContactsDesktopExact Audio CopyFLACFLAC.EXE
Additional command line options : -6 -V -T "ARTIST=%a" -T "TITLE=%t" -T "ALBUM=%g" -T "DATE=%y" -T "TRACKNUMBER=%n" -T "GENRE=%m" -T "COMMENT=%e" %j--picture="%i"%j %s -o %d


TOC of the extracted CD

Track | Start | Length | Start sector | End sector
---------------------------------------------------------
1 | 0:00.00 | 2:42.73 | 0 | 12222
2 | 2:42.73 | 4:47.40 | 12223 | 33787
3 | 7:30.38 | 3:17.67 | 33788 | 48629
4 | 10:48.30 | 2:11.40 | 48630 | 58494
5 | 12:59.70 | 4:11.33 | 58495 | 77352
6 | 17:11.28 | 5:27.07 | 77353 | 101884
7 | 22:38.35 | 3:10.65 | 101885 | 116199
8 | 25:49.25 | 2:45.33 | 116200 | 128607
9 | 28:34.58 | 2:57.62 | 128608 | 141944
10 | 31:32.45 | 2:55.63 | 141945 | 155132


Range status and errors

Selected range

Filename C:UsersleomarcoContactsDesktopElis Regina - Nada Será como Antes - Elis Interpreta Milton.flac

Peak level 100.0 %
Extraction speed 1.0 X
Range quality 100.0 %
Test CRC 92872E14
Copy CRC 92872E14
Copy OK

No errors occurred
None of the tracks are present in the AccurateRip database

End of status report

==== Log checksum 5E40C037197A93A200B7DDBFE1440A9786715E39A29E5FCEF92F363A925A724A ====

Related torrents

Torrent NameAddedSizeSeedLeechHealth
2 Comments
1 Good
1 Year+ - in Music235.46 MB25
Verified torrent
1 Year+ - in Music193.74 MB65
Verified torrent
1 Year+ - in Music216.16 MB147
Verified torrent
1 Year+ - in Music175.88 MB117
Verified torrent
1 Year+ - in Music377.84 MB1011

Comments (0 Comments)




Please login or create a FREE account to post comments

Latest Searches

| the official uk 3 12 | goldbergs 2013 s04e09 | suomi cd | 18 SiREN | Hipster Highschool of the Dead 1920x1080 Blu Ray Hi10P AAC | Winter The Bridge S01E03 | enigma the screen behind the mirror | the big boss 3d | william the angel | Dani daniels and Valentina nappi licking labia |