Quick Browse
Movies
TV shows
Music
Games
Applications
Anime
Other
Facebook
Advertising

Friends
Torrent Download
Movie4u
1337x.to
Torrent Downloads




Verified torrent Emilio Santiago - BossaNova[Eac flac Cue](TntVillage)


    Seeders : 14      Leechers : 19
Hash :89138ACDDDD5595AF8A14B37F9212B9ED31E2A9E
Added :1 Year+ by leoneneroVerified torrent uploader in Music - Music
Size :316.09 MB
Stream :WATCH ONLINE @ Movie4u


Emilio Santiago - BossaNova[Eac flac Cue](TntVillage)
Free and Fast Download with Usenet 300GB+ free







Trackers List

Tracker NameLast CheckStatusSeedersLeechers




Torrent File Content (20 files)


Emiliano Santiago - BossaNova
     00._%EmilianoSantiago%_-_%BossaNova%.nfo -
2.51 KB

     01 - Corcovado.flac -
21.43 MB

     02 - Você e Eu.flac -
20.2 MB

     03 - Insensatez.flac -
25.07 MB

     04 - Doce Viver.flac -
23.41 MB

     05 - Rio.flac -
15.25 MB

     06 - Manhã de Carnaval.flac -
16.34 MB

     07 - A Felicidade.flac -
27.92 MB

     08 - Bateu Pra Trás.flac -
17.57 MB

     09 - Faixa de Cetim.flac -
16.68 MB

     10 - Canto de Ossanha.flac -
18.74 MB

     11 - A Volta.flac -
27.35 MB

     12 - Naquela Estação.flac -
26.01 MB

     13 - Aula de Matemática.flac -
15.47 MB

     14 - Chuva.flac -
27.22 MB

     15 - Garota de Ipanema.flac -
17.35 MB

     BossaNova.cue -
2.1 KB

     Emílio Santiago - BossaNova.log -
15.66 KB

     Emílio Santiago - BossaNova.m3u -
356 bytes

     folder.jpg -
62.9 KB



Description




http://img198.imageshack.us/img198/2434/progettocover.jpg


http://img718.imageshack.us/img718/9817/671l.jpg


http://img836.imageshack.us/img836/6026/671236.jpg


Artist: Emilio Santiago
Title Of Album: BossaNova
Etichetta: BMG
Pubblicazione: 2001
Genre: Mpb
Style: Bossanova
Source: CD
Playing Time: 58.54
Total Size: 316,01 MB
Quality: FLAC+Cue+Log+Info+Cover
Bitrate: Lossless

http://img98.imageshack.us/img98/9113/progettotracklist.jpg



1. Corcovado [04.05]
2. Você e Eu [03.47]
3. Insensatez [04.49]
4. Doce Viver [04.16]
5. Rio [02.49]
6. Manhã de Carnaval [03.10]
7. A Felicidade [05.12]
8. Bateu Pra Trás [03.06]
9. Faixa de Cetim [03.03]
10. Canto de Ossanha [03.33]
11. A Volta [05.04]
12. Naquela Estação [04.56]
13. Aula de Matemática [02.55]
14. Chuva [04.51]
15. Garota de Ipanema [03.12]


http://img210.imageshack.us/img210/734/progettorecensione.jpg


Uscito nel 2000, questo cd di Emilio Santiago contiene alcuni classici del genere "bossa nova", genere di provenienza brasiliana, che unisce i ritmi della musica popolare brasiliana ad una venatura di soft jazz, per un mix davvero irresistibile, ideale per un'atmosfera rilassante e/o romantica.
Emilio con la sua bella voce ci porta a spasso sulla spiaggia di Rio, ci fa ballare con i ritmi del carnevale più famoso del mondo e ci emoziona con una giusta dose di "saudade" tipica brasiliana.
Anche chi non ha grande familiarità con la lingua portoghese sarà catturato dai testi e dalle melodie più famose della bossa nova, genere che non conosce momenti di crisi, adatto a tutte le situazioni.
Mi sento di consigliare l'ascolto di questo disco non solo a coloro che già conoscono ed apprezzano la musica brasileira, ma anche a chi vuole sperimentare qualcosa di diverso dal solito, per farsi un'idea della grande gioia di vivere, ma anche delle tante sofferenze del popolo brasiliano, abituato a convivere con problemi difficili da immaginare alle nostre latitudini.
Il tutto si risolve però in modo positivo, grazie al carnevale e ad un clima sempre favorevole, che incentivano la voglia di vivere e di divertirsi, sempre e comunque, nel tipico stile sudamericano.
Un'esperienza che consiglio quindi a tutti e che sono sicuro contagerà coloro che vorranno provarla.
Buon ascolto a tutti!

http://img121.imageshack.us/img121/5530/progettodescrizione.jpg


http://img692.imageshack.us/img692/2997/batistaoemiliosantiago.gif


Nato a Rio de Janeiro nel dicembre del 46.br /Mentre studiava diritto, decade 70,
cominciÒ a cantare e quindi prender parte a piccoli festival universitari. Nello stesso periodo partecipò ad un
programma televisivo, arrivando in finale e vincendolo. Attualmente oltre che ad avere una carriera solista è membro e
fondatore dell'orchestra Ed Lincoln.


http://img713.imageshack.us/img713/7143/progettodatitecnici.jpg


Exact Audio Copy V1.0 beta 3 from 29. August 2011

EAC extraction logfile from 24. February 2012, 12:40

Emílio Santiago / BossaNova

Used drive : HL-DT-STDVDRAM GSA-T40N Adapter: 0 ID: 0

Read mode : Secure
Utilize accurate stream : Yes
Defeat audio cache : Yes
Make use of C2 pointers : No

Read offset correction : 667
Overread into Lead-In and Lead-Out : No
Fill up missing offset samples with silence : Yes
Delete leading and trailing silent blocks : No
Null samples used in CRC calculations : Yes
Used interface : Native Win32 interface for Win NT & 2000
Gap handling : Appended to previous track

Used output format : User Defined Encoder
Selected bitrate : 896 kBit/s
Quality : High
Add ID3 tag : No
Command line compressor : C:\Program Files\Exact Audio Copy\FLAC\FLAC.EXE
Additional command line options : -8 -V -T "ARTIST=%artist%" -T "TITLE=%title%" -T "ALBUM=%albumtitle%" -T "DATE=%year%" -T "TRACKNUMBER=%tracknr%" -T "GENRE=%genre%" -T "COMMENT=%comment%" -T "BAND=%albuminterpret%" -T "ALBUMARTIST=%albuminterpret%" -T "COMPOSER=%composer%" %haslyrics%--tag-from-file=LYRICS="%lyricsfile%"%haslyrics% -T "DISCNUMBER=%cdnumber%" -T "TOTALDISCS=%totalcds%" -T "TOTALTRACKS=%numtracks%" %hascover%--picture="%coverfile%"%hascover% %source% -o %dest%


TOC of the extracted CD

Track | Start | Length | Start sector | End sector
---------------------------------------------------------
1 | 0:00.00 | 4:05.35 | 0 | 18409
2 | 4:05.35 | 3:47.10 | 18410 | 35444
3 | 7:52.45 | 4:49.22 | 35445 | 57141
4 | 12:41.67 | 4:16.35 | 57142 | 76376
5 | 16:58.27 | 2:49.43 | 76377 | 89094
6 | 19:47.70 | 3:10.10 | 89095 | 103354
7 | 22:58.05 | 5:12.00 | 103355 | 126754
8 | 28:10.05 | 3:06.00 | 126755 | 140704
9 | 31:16.05 | 3:03.35 | 140705 | 154464
10 | 34:19.40 | 3:33.10 | 154465 | 170449
11 | 37:52.50 | 5:04.65 | 170450 | 193314
12 | 42:57.40 | 4:56.20 | 193315 | 215534
13 | 47:53.60 | 2:55.60 | 215535 | 228719
14 | 50:49.45 | 4:51.42 | 228720 | 250586
15 | 55:41.12 | 3:12.70 | 250587 | 265056


Track 1

Filename F:\MY EAC[.FLAC]\Emiliano Santiago - BossaNova\01 - Corcovado.flac

Pre-gap length 0:00:02.00

Peak level 99.2 %
Extraction speed 1.2 X
Track quality 100.0 %
Test CRC CC7BC9CC
Copy CRC CC7BC9CC
Cannot be verified as accurate (confidence 1) [3F9C6D28], AccurateRip returned [74A09FBF] (AR v2)
Copy OK

Track 2

Filename F:\MY EAC[.FLAC]\Emiliano Santiago - BossaNova\02 - Você e Eu.flac

Peak level 100.0 %
Extraction speed 1.3 X
Track quality 100.0 %
Test CRC CF7E812D
Copy CRC CF7E812D
Cannot be verified as accurate (confidence 1) [130913D4], AccurateRip returned [491BCDC0] (AR v2)
Copy OK

Track 3

Filename F:\MY EAC[.FLAC]\Emiliano Santiago - BossaNova\03 - Insensatez.flac

Peak level 99.1 %
Extraction speed 1.4 X
Track quality 100.0 %
Test CRC 39223BA3
Copy CRC 39223BA3
Cannot be verified as accurate (confidence 1) [834D40B7], AccurateRip returned [CA97CB70] (AR v2)
Copy OK

Track 4

Filename F:\MY EAC[.FLAC]\Emiliano Santiago - BossaNova\04 - Doce Viver.flac

Peak level 99.2 %
Extraction speed 1.5 X
Track quality 100.0 %
Test CRC 341124D7
Copy CRC 341124D7
Cannot be verified as accurate (confidence 1) [30A08C92], AccurateRip returned [4C63C4BE] (AR v2)
Copy OK

Track 5

Filename F:\MY EAC[.FLAC]\Emiliano Santiago - BossaNova\05 - Rio.flac

Peak level 99.0 %
Extraction speed 1.4 X
Track quality 100.0 %
Test CRC 18E61049
Copy CRC 18E61049
Cannot be verified as accurate (confidence 1) [F3437FBE], AccurateRip returned [0BEAE6C0] (AR v2)
Copy OK

Track 6

Filename F:\MY EAC[.FLAC]\Emiliano Santiago - BossaNova\06 - Manhã de Carnaval.flac

Peak level 99.6 %
Extraction speed 1.5 X
Track quality 100.0 %
Test CRC E687F50F
Copy CRC E687F50F
Cannot be verified as accurate (confidence 1) [B39588C9], AccurateRip returned [808A8B7A] (AR v2)
Copy OK

Track 7

Filename F:\MY EAC[.FLAC]\Emiliano Santiago - BossaNova\07 - A Felicidade.flac

Peak level 99.5 %
Extraction speed 1.7 X
Track quality 100.0 %
Test CRC 96A91902
Copy CRC 96A91902
Cannot be verified as accurate (confidence 1) [68EDFFBB], AccurateRip returned [8617D9A8] (AR v2)
Copy OK

Track 8

Filename F:\MY EAC[.FLAC]\Emiliano Santiago - BossaNova\08 - Bateu Pra Trás.flac

Peak level 99.3 %
Extraction speed 1.7 X
Track quality 100.0 %
Test CRC CA3C9FB9
Copy CRC CA3C9FB9
Cannot be verified as accurate (confidence 1) [15E42FB0], AccurateRip returned [08D7D698] (AR v2)
Copy OK

Track 9

Filename F:\MY EAC[.FLAC]\Emiliano Santiago - BossaNova\09 - Faixa de Cetim.flac

Peak level 99.0 %
Extraction speed 1.8 X
Track quality 100.0 %
Test CRC 9D1AFC32
Copy CRC 9D1AFC32
Cannot be verified as accurate (confidence 1) [C1AFE4ED], AccurateRip returned [A72AB09E] (AR v2)
Copy OK

Track 10

Filename F:\MY EAC[.FLAC]\Emiliano Santiago - BossaNova\10 - Canto de Ossanha.flac

Peak level 99.3 %
Extraction speed 1.6 X
Track quality 99.9 %
Test CRC D3A4F8D3
Copy CRC D3A4F8D3
Cannot be verified as accurate (confidence 1) [C75F0F63], AccurateRip returned [B387035C] (AR v2)
Copy OK

Track 11

Filename F:\MY EAC[.FLAC]\Emiliano Santiago - BossaNova\11 - A Volta.flac

Peak level 97.9 %
Extraction speed 2.0 X
Track quality 100.0 %
Test CRC A39BB74B
Copy CRC A39BB74B
Cannot be verified as accurate (confidence 1) [DE068ABA], AccurateRip returned [34D93524] (AR v2)
Copy OK

Track 12

Filename F:\MY EAC[.FLAC]\Emiliano Santiago - BossaNova\12 - Naquela Estação.flac

Peak level 98.5 %
Extraction speed 2.1 X
Track quality 100.0 %
Test CRC 90DD57A5
Copy CRC 90DD57A5
Cannot be verified as accurate (confidence 1) [480B1F6B], AccurateRip returned [EF098F57] (AR v2)
Copy OK

Track 13

Filename F:\MY EAC[.FLAC]\Emiliano Santiago - BossaNova\13 - Aula de Matemática.flac

Peak level 95.7 %
Extraction speed 2.0 X
Track quality 100.0 %
Test CRC A7B9680E
Copy CRC A7B9680E
Cannot be verified as accurate (confidence 1) [C4B026DC], AccurateRip returned [39D855C4] (AR v2)
Copy OK

Track 14

Filename F:\MY EAC[.FLAC]\Emiliano Santiago - BossaNova\14 - Chuva.flac

Peak level 98.7 %
Extraction speed 2.2 X
Track quality 100.0 %
Test CRC 9C86A2B9
Copy CRC 9C86A2B9
Cannot be verified as accurate (confidence 1) [B9BDF87B], AccurateRip returned [6357AD64] (AR v2)
Copy OK

Track 15

Filename F:\MY EAC[.FLAC]\Emiliano Santiago - BossaNova\15 - Garota de Ipanema.flac

Peak level 98.8 %
Extraction speed 1.9 X
Track quality 99.9 %
Test CRC CCD5B53D
Copy CRC CCD5B53D
Cannot be verified as accurate (confidence 1) [7A0BBB86], AccurateRip returned [5C43998C] (AR v2)
Copy OK

No errors occurred

End of status report

None of the tracks are present in the AccurateRip database

==== Log checksum 7FF6D7ADA4D526F2CB9D2A018F98BEA6AF3F4912B2324E65DB2C2440CCB648B8 ====

Related torrents

Torrent NameAddedSizeSeedLeechHealth
Verified torrent
1 Year+ - in Music389.13 MB713
Verified torrent
1 Year+ - in Music414.64 MB32
Verified torrent
1 Year+ - in Music367.87 MB118
Verified torrent
1 Year+ - in Music265.29 MB39
Verified torrent
1 Year+ - in Music266.11 MB10

Comments (0 Comments)




Please login or create a FREE account to post comments

Latest Searches

| Mom goes to town on her ladybits in the kitchen PIRTE | charlie and the great elevator | need for speed rivals crack reloaded | veronica avlu xxx | lil famous | road im on | shutter island 2010 thriller dvdrip fxg swesub prien | colombiana 2011 unrated 720p brrip 5 1aac x264 ilpruny | rittz ft tech 9 | please dont tell 2012 xxx |